<?xml version="1.0" standalone="no"?>
<!DOCTYPE svg PUBLIC "-//W3C//DTD SVG 1.1//EN" "http://www.w3.org/Graphics/SVG/1.1/DTD/svg11.dtd" >
<svg xmlns="http://www.w3.org/2000/svg">
<defs>
  <font id="devui-icomoon" horiz-adv-x="1001">
    <font-face font-family="devui-icomoon"
      units-per-em="1001" ascent="1001"
      descent="0" />
    <missing-glyph horiz-adv-x="0" />
    <glyph glyph-name="branch-node"
      unicode="&#xE001;"
      horiz-adv-x="1001" d="M717.2512597250001 469.21875C702.0726650437499 363.103548933125 610.81245225 281.53125 500.5 281.53125C390.187550878125 281.53125 298.92733245375 363.103548933125 283.748742151875 469.21875L93.84375 469.21875L93.84375 531.78125L283.748742151875 531.78125C298.92733245375 637.896451066875 390.187550878125 719.46875 500.5 719.46875C610.81245225 719.46875 702.0726650437499 637.896451066875 717.2512597250001 531.78125L907.15625 531.78125L907.15625 469.21875L717.2512597250001 469.21875zM500.5 344.09375C586.8807863668751 344.09375 656.90625 414.119213633125 656.90625 500.5C656.90625 586.880786366875 586.8807863668751 656.90625 500.5 656.90625C414.119213633125 656.90625 344.09375 586.880786366875 344.09375 500.5C344.09375 414.119213633125 414.119213633125 344.09375 500.5 344.09375z" />
    <glyph glyph-name="down-customization"
      unicode="&#xE002;"
      horiz-adv-x="1001" d="M751.14535120625 250.25C874.23763301875 249.13372859375 978.23855504375 158.66353628125 996.39035120625 36.911875C997.84885825625 27.730577875 995.23055506875 18.3697576562499 989.2202194875 11.2775537875C983.20987765 4.185356175 974.40528185 0.06716084375 965.10910120625 0L532.176603083125 0C522.8804230650001 0.06716084375 514.07582601375 4.185356175 508.065487304375 11.2775537875C502.055148595 18.3697576562499 499.43684791 27.730577875 500.895353083125 36.911875C519.218384059375 159.8279370187499 624.92118063375 250.5606603500001 748.976653425 250.26444568125C680.872567375 251.425749575 626.02035120625 306.994662975 626.02035120625 375.375C626.02035120625 444.4796293437501 682.0407218624999 500.5 751.14535120625 500.5C820.24998055 500.5 876.27035120625 444.4796293437501 876.27035120625 375.375C876.27035120625 306.27037065625 820.24998055 250.25 751.14535120625 250.25zM437.9375 0L62.5625 0C28.010185328125 0 0 28.01018845625 0 62.5625L0 938.4375C0 972.989814671875 28.010185328125 1001 62.5625 1001L688.1875 1001C722.73981154375 1001 750.75 972.989814671875 750.75 938.4375L750.75 563.0625C702.67982785 563.0625 658.8304535312501 544.991098526875 625.625 515.2714135318749L625.625 875.875L125.125 875.875L125.125 312.8125L573.742275981875 312.8125C578.98617651875 297.9761409625 586.0425545974999 283.9959622500001 594.64536506375 271.1380046375C500.979188084375 217.0943149375 437.9375 115.90924345 437.9375 0zM312.8125 187.6875L312.8125 125.125L437.9375 125.125L437.9375 187.6875L312.8125 187.6875zM437.9375 813.3125L437.9375 563.0625L563.0625 563.0625L375.375 375.375L187.6875 563.0625L312.8125 563.0625L312.8125 813.3125L437.9375 813.3125z" />
    <glyph glyph-name="new-bug"
      unicode="&#xE003;"
      horiz-adv-x="1001" d="M813.3125 563.0625L625.625 563.0625L625.625 375.375L531.78125 375.375L531.78125 563.0625L469.21875 563.0625L469.21875 375.375L437.9375 375.375L437.9375 125.125C362.00471181875 140.62471548125 297.22709891875 184.56786473125 252.6124125525 244.14758493125L187.6875 211.4612500000001L187.6875 62.5625L62.5625 62.5625L62.5625 289.03875L198.2356501125 356.60929679375C191.336551030625 382.82551432125 187.681824955625 410.1320792318751 187.6875 437.9375L62.5625 437.9375L62.5625 563.0625L187.6874974975 563.0625L187.687494995 680.5734316631249L36.810695546625 831.45023086125L125.287431644375 919.92696670875L294.464398353125 750.75L743.3919117625 750.75L912.45467438125 919.81276512125L1000.93141273125 831.336028648125L813.36072943125 643.76534847625L813.3125 563.0625zM938.4375 62.5625L813.3125 62.5625L938.4375 62.5625zM563.0625 125.125L531.78125 125.125L563.0625 125.125zM312.8125 813.3125C312.8125 916.969444015625 396.843055984375 1001.0000000000006 500.5 1001.0000000000006C604.1569440156251 1001.0000000000006 688.1875 916.969444015625 688.1875 813.3125L312.8125 813.3125zM688.1875 312.8125L688.1875 500.5L813.3125 500.5L813.3125 312.8125L1001 312.8125L1001 187.6875L813.3125 187.6875L813.3125 0L688.1875 0L688.1875 187.6875L500.5 187.6875L500.5 312.8125L688.1875 312.8125z" />
    <glyph glyph-name="op-delete"
      unicode="&#xE004;"
      horiz-adv-x="1001" d="M187.6875 177.051875C187.6875 113.8211386812501 238.946139306875 62.5625 302.176875 62.5625L698.1975 62.5625C761.6315707 62.90447288125 812.97052711875 114.2434293 813.3125 177.6775L813.3125 625.625L187.6875 625.625L187.6875 177.051875zM875.875 813.3125L750.75 813.3125L688.1875 938.4375L312.8125 938.4375L250.25 813.3125L125.125 813.3125L125.125 688.1875L875.875 688.1875L875.875 813.3125z" />
    <glyph glyph-name="code-editor-add"
      unicode="&#xE005;"
      horiz-adv-x="1001" d="M563.0625 563.0625L813.3125 563.0625L813.3125 437.9375L563.0625 437.9375L563.0625 187.6875L437.9375 187.6875L437.9375 437.9375L187.6875 437.9375L187.6875 563.0625L437.9375 563.0625L437.9375 813.3125L563.0625 813.3125z" />
    <glyph glyph-name="code-editor-alert"
      unicode="&#xE006;"
      horiz-adv-x="1001" d="M556.457601074375 763.95979785125L768.041849575 340.79130085C783.4941176562501 309.88677094375 770.96757863125 272.30716638125 740.0630487249999 256.8548983C731.3759077625 252.5113278187501 721.79676944375 250.25 712.084247875 250.25L288.915751499375 250.25C254.3634368275 250.25 226.353251499375 278.2601884562501 226.353251499375 312.8125C226.353251499375 322.5250215687501 228.6145786925 332.1041598875001 232.958150425 340.79130085L444.542398925625 763.95979785125C459.99466387875 794.8643277575 497.57427094375 807.39086302875 528.47880085 791.938598075625C540.5863588125001 785.884819094375 550.403822093125 776.06735581375 556.457601074375 763.95979785125zM500.5 688.1875C483.223842976875 688.1875 469.21875 674.182407023125 469.21875 656.90625L469.21875 469.21875C469.21875 451.9425929768749 483.223842976875 437.9375 500.5 437.9375C517.776157023125 437.9375 531.78125 451.9425929768749 531.78125 469.21875L531.78125 656.90625C531.78125 674.182407023125 517.776157023125 688.1875 500.5 688.1875zM500.5 375.375C483.223842976875 375.375 469.21875 361.3699089 469.21875 344.09375C469.21875 326.8175911000001 483.223842976875 312.8125 500.5 312.8125C517.776157023125 312.8125 531.78125 326.8175911000001 531.78125 344.09375C531.78125 361.3699089 517.776157023125 375.375 500.5 375.375z" />
    <glyph glyph-name="code-editor-close"
      unicode="&#xE007;"
      horiz-adv-x="1001" d="M588.9767358475 500.5L765.93020879375 323.54652955625L677.45347044375 235.06979120625L500.5 412.0232641525L323.5465283050001 235.06979120625L235.069791831875 323.54652955625L412.0232641525 500.5L235.069791831875 677.453471695L323.5465283050001 765.930208168125L500.5 588.9767358475001L677.45347044375 765.930208168125L765.93020879375 677.453471695z" />
    <glyph glyph-name="code-editor-dark"
      unicode="&#xE008;"
      horiz-adv-x="1001" d="M500.5 650.6500000000001C417.5744447875 650.6500000000001 350.35 583.4255552125001 350.35 500.5C350.35 417.5744447875001 417.5744447875 350.35 500.5 350.35L500.5 650.6500000000001zM500.5 312.8125C396.843055984375 312.8125 312.8125 396.843055984375 312.8125 500.5C312.8125 604.156944015625 396.843055984375 688.1875 500.5 688.1875C604.1569440156251 688.1875 688.1875 604.156944015625 688.1875 500.5C688.1875 396.843055984375 604.1569440156251 312.8125 500.5 312.8125zM469.21875 813.3125L531.78125 813.3125L531.78125 750.75L469.21875 750.75L469.21875 813.3125zM699.57265503125 743.8110242062501L743.81102420625 699.5726562825L699.57265503125 655.3342877331249L655.33428585625 699.5726562825L699.57265503125 743.8110242062501zM813.3125 531.78125L813.3125 469.21875L750.75 469.21875L750.75 531.78125L813.3125 531.78125zM743.81102420625 301.4273449687501L699.57265503125 257.1889757937501L655.33428585625 301.4273449687501L699.57265503125 345.6657141437501L743.81102420625 301.4273449687501zM531.78125 187.6875L469.21875 187.6875L469.21875 250.25L531.78125 250.25L531.78125 187.6875zM301.4273437175001 257.1889757937501L257.18897579375 301.4273449687501L301.4273437175001 345.6657141437501L345.665712266875 301.4273449687501L301.4273437175001 257.1889757937501zM187.6875 469.21875L187.6875 531.78125L250.25 531.78125L250.25 469.21875L187.6875 469.21875zM257.18897579375 699.5726562825L301.4273437175001 743.8110242062501L345.665712266875 699.5726562825L301.4273437175001 655.3342877331249L257.18897579375 699.5726562825z" />
    <glyph glyph-name="code-editor-flod"
      unicode="&#xE009;"
      horiz-adv-x="1001" d="M567.508679863125 503.643923908125L346.316840244375 724.8357641524999L434.793576091875 813.3125L744.46214968125 503.643923908125L434.793576091875 193.97535031875L346.316840244375 282.4520824125L567.508679863125 503.643923908125z" />
    <glyph glyph-name="code-editor-fullscreen"
      unicode="&#xE00A;"
      horiz-adv-x="1001" d="M375.375 312.8125L437.9375 312.8125L437.9375 187.6875L187.6875 187.6875L187.6875 437.9375L312.8125 437.9375L312.8125 375.375L437.9375 500.5L500.5 437.9375L375.375 312.8125zM625.625 688.1875L563.0625 688.1875L563.0625 813.3125L813.3125 813.3125L813.3125 563.0625L688.1875 563.0625L688.1875 625.625L563.0625 500.5L500.5 563.0625L625.625 688.1875z" />
    <glyph glyph-name="code-editor-less"
      unicode="&#xE00B;"
      horiz-adv-x="1001" d="M187.6875 563.0625L813.3125 563.0625L813.3125 437.9375L187.6875 437.9375z" />
    <glyph glyph-name="code-editor-light"
      unicode="&#xE00C;"
      horiz-adv-x="1001" d="M500.5 650.6500000000001L500.5 350.35C583.4255552125 350.35 650.65 417.5744447875001 650.65 500.5C650.65 583.4255552125001 583.4255552125 650.6500000000001 500.5 650.6500000000001zM500.5 312.8125C396.843055984375 312.8125 312.8125 396.843055984375 312.8125 500.5C312.8125 604.156944015625 396.843055984375 688.1875 500.5 688.1875C604.1569440156251 688.1875 688.1875 604.156944015625 688.1875 500.5C688.1875 396.843055984375 604.1569440156251 312.8125 500.5 312.8125zM531.78125 813.3125L531.78125 750.75L469.21875 750.75L469.21875 813.3125L531.78125 813.3125zM301.4273437175001 743.8110242062501L345.665712266875 699.5726562825L301.4273437175001 655.3342877331249L257.18897579375 699.5726562825L301.4273437175001 743.8110242062501zM187.6875 531.78125L250.25 531.78125L250.25 469.21875L187.6875 469.21875L187.6875 531.78125zM257.18897579375 301.4273449687501L301.4273437175001 345.6657141437501L345.665712266875 301.4273449687501L301.4273437175001 257.1889757937501L257.18897579375 301.4273449687501zM469.21875 187.6875L469.21875 250.25L531.78125 250.25L531.78125 187.6875L469.21875 187.6875zM699.57265503125 257.1889757937501L655.33428585625 301.4273449687501L699.57265503125 345.6657141437501L743.81102420625 301.4273449687501L699.57265503125 257.1889757937501zM813.3125 469.21875L750.75 469.21875L750.75 531.78125L813.3125 531.78125L813.3125 469.21875zM743.81102420625 699.5726562825L699.57265503125 655.3342877331249L655.33428585625 699.5726562825L699.57265503125 743.8110242062501L743.81102420625 699.5726562825z" />
    <glyph glyph-name="code-editor-main"
      unicode="&#xE00D;"
      horiz-adv-x="1001" d="M250.25 187.6875L250.25 500.5L187.6875 500.5L187.6875 563.0625L500.5 813.3125L813.3125 563.0625L813.3125 500.5L750.75 500.5L750.75 187.6875z" />
    <glyph glyph-name="code-editor-run"
      unicode="&#xE00E;"
      horiz-adv-x="1001" d="M750.75 500.5L250.25 187.6875L250.25 813.3125z" />
    <glyph glyph-name="code-editor-save"
      unicode="&#xE00F;"
      horiz-adv-x="1001" d="M250.25 813.3125L750.75 813.3125C785.30231154375 813.3125 813.3125 785.302314671875 813.3125 750.75L813.3125 250.25C813.3125 215.69768845625 785.30231154375 187.6875 750.75 187.6875L375.375 187.6875C271.718055984375 187.6875 187.6875 271.7180591125 187.6875 375.375L187.6875 750.75C187.6875 785.302314671875 215.697685328125 813.3125 250.25 813.3125zM312.8125 750.75L312.8125 500.5L688.1875 500.5L688.1875 750.75L312.8125 750.75zM563.0625 625.625L625.625 625.625L625.625 500.5L563.0625 500.5L563.0625 625.625z" />
    <glyph glyph-name="code-editor-temporary"
      unicode="&#xE010;"
      horiz-adv-x="1001" d="M500.5 250.25C362.2907413125 250.25 250.25 362.2907413125 250.25 500.5C250.25 638.7092586875001 362.2907413125 750.75 500.5 750.75C638.7092586875 750.75 750.75 638.7092586875001 750.75 500.5C750.75 362.2907413125 638.7092586875 250.25 500.5 250.25zM500.5 375.375C569.60462934375 375.375 625.625 431.39537065625 625.625 500.5C625.625 569.60462934375 569.60462934375 625.625 500.5 625.625C431.39537065625 625.625 375.375 569.60462934375 375.375 500.5C375.375 431.39537065625 431.39537065625 375.375 500.5 375.375z" />
    <glyph glyph-name="code-editor-window"
      unicode="&#xE011;"
      horiz-adv-x="1001" d="M750.75 688.1875L813.3125 688.1875L813.3125 563.0625L563.0625 563.0625L563.0625 813.3125L688.1875 813.3125L688.1875 750.75L813.3125 875.875L875.875 813.3125L750.75 688.1875zM250.25 312.8125L187.6875 312.8125L187.6875 437.9375L437.9375 437.9375L437.9375 187.6875L312.8125 187.6875L312.8125 250.25L187.6875 125.125L125.125 187.6875L250.25 312.8125z" />
    <glyph glyph-name="add-tasklist"
      unicode="&#xE012;"
      horiz-adv-x="1001" d="M875.875 62.5625L875.875 414.726501564375L938.4375 414.726501564375L938.4375 0L62.5625 0L62.5625 875.875L637.80258416875 875.875L637.80258416875 813.3125L125.125 813.3125L125.125 62.5625L875.875 62.5625zM904.18483780625 845.381451289375C921.89603130625 864.2986727375 951.5892260875 865.2763525656251 970.5064494125 847.565160316875C989.4236727375 829.8539674425 990.40135569375 800.160770784375 972.69016219375 781.243548710625L529.2727308618751 307.6319683937501L279.3780877387501 561.42259548375C261.196235925625 579.8879111025 261.4260292393751 609.596310448125 279.89134548375 627.7781622612499C298.3566611025 645.9600140743751 328.065060448125 645.7302207606249 346.24691226125 627.26490451625L527.566914249375 443.1180322318751L904.18483780625 845.381451289375z" />
    <glyph glyph-name="at"
      unicode="&#xE013;"
      horiz-adv-x="1001" d="M823.81856431875 813.3125C750.10880319375 896.436631715625 641.9485197125 938.4375 502.7074377325001 938.4375C259.7744924775 938.4375 62.83842940375 742.366202703125 62.83842940375 500.5C62.83842940375 258.633800425 259.7744924775 62.5625 502.7074377325001 62.5625C577.670941973125 62.5625 657.29518855 63.35339635625 754.06115785 108.919235425C850.82712089375 154.48507449375 918.8177123125 207.92051905625 942.5764473125 250.25L1001 250.25C914.07951635 100.65020590625 688.78016081875 0 502.7074377325001 0C225.06978619125 0 0 224.0814826249999 0 500.5C0 776.918517375 225.06978619125 1001 502.7074377325001 1001C668.037044675 1001 825.4451079875 942.8516998525625 906.34787368125 789.5537187037501C987.250639375 636.2557376175 937.8742998625 437.9375 906.34787368125 375.375C874.8214475 312.8125 805.67751639375 232.82871486875 721.68310589375 216.9955975687501C652.15070545625 203.8885911562501 607.6250104925 227.8108707875 588.10602475625 288.76242395C512.1840054581251 212.5897774 415.822750468125 181.1000003312501 338.50488296625 216.9955975687501C228.4188731825 268.10413004375 198.625655353125 436.465033379375 271.959868805625 593.040192745C345.2940828837501 749.615351485 493.98555206 835.112941788125 604.0715624693751 784.00440493375C637.637325325 768.421162884375 663.73850668125 741.937323001875 681.7278342875001 708.210609981875L691.22272594375 750.75L754.06115785 750.75C742.5269726875 704.51800293875 726.6358224125 638.83196001625 706.38771328125 553.6918718581251C676.0155527124999 425.9817393081251 606.1392474637499 264.5837256562501 721.68310589375 288.6981159562499C837.22695931875 312.8125 893.8866311375001 480.476890018125 893.8866311375001 563.0625C893.8866311375001 645.648109981875 897.52832544375 730.188368284375 823.81856431875 813.3125zM647.61434863125 555.374002308125C655.1274604875 635.1486560168751 630.4961537874999 702.70644068625 577.51489420625 727.303523821875C498.88202989625 763.8096215749999 387.5781978818751 691.8602647206251 328.910827245 566.600137228125C270.2434566081251 441.3400103612501 286.428686919375 310.2025739312501 365.06155060375 273.69647930625C443.69441491375 237.1903784250001 554.998246928125 309.13973715625 613.665618190625 434.399862771875C619.5131185993749 446.8848039906251 624.61699425125 459.428134165 628.98952991875 471.9303288699999L647.61434863125 555.374002308125z" />
    <glyph glyph-name="bold"
      unicode="&#xE014;"
      horiz-adv-x="1001" d="M875.875 312.8125C875.875 140.0509297687501 735.82407023125 0 563.0625 0L125.125 0L125.125 1001L500.5 1001C638.7092586875 1001 750.75 888.9592586875 750.75 750.75C750.75 692.161524429375 730.6161863 638.2755529149999 696.89006261875 595.63359480625C802.70027963125 545.476911354375 875.875 437.690141013125 875.875 312.8125zM563.0625 500.5L250.25 500.5L250.25 125.125L563.0625 125.125C666.7194408875 125.125 750.75 209.1555591125 750.75 312.8125C750.75 416.4694440156251 666.7194408875 500.5 563.0625 500.5zM500.5 625.625C569.60462934375 625.625 625.625 681.64537065625 625.625 750.75C625.625 819.85462934375 569.60462934375 875.875 500.5 875.875L250.25 875.875L250.25 625.625L500.5 625.625z" />
    <glyph glyph-name="clear-style"
      unicode="&#xE015;"
      horiz-adv-x="1001" d="M270.7130200775 125.125L523.742333489375 125.125L661.4696150562501 278.0866463375L289.6468449875 612.8773726075001L78.494235194375 378.163622711875C68.24232039625 366.7677638625001 62.60277148125 351.9618039437501 62.6754603475 336.6333345375C62.74741473 321.4597386000001 69.207401388125 307.0182740625 80.471002486875 296.8509481437501L270.7130200775 125.125L270.7130200775 125.125zM1001 125.125L1001 62.5625L246.346105005 62.5625L37.3654640734375 250.7295165375C13.5806097301875 272.1454923687501 1e-11 305.9821952687501 1e-11 336.90292260625C1e-11 367.8236562 11.448996433875 397.64931080875 32.1390037093125 420.627892059375L536.070018859375 980.299983537875L1001 561.6751477837499L607.92848116 125.125L1001 125.125z" />
    <glyph glyph-name="color"
      unicode="&#xE016;"
      horiz-adv-x="1001" d="M353.13215812875 458.843668408125L261.259704330625 542.2811362718751L385.343197614375 681.28117932875L339.4069710281251 722.999913260625L587.5739575956251 1000.9999999999932L1001 625.5313964899999L752.83301218125 347.531309125L706.89678434375 389.2500436825001L582.81329231125 250.25L490.940838513125 333.6874666125L418.7586377975 252.82796914375L210.460656030625 252.82796914375L187.6875 273.5102745375L353.13215812875 458.843668408125zM348.557095761875 546.8957500256249L578.238229944375 338.30208286875L660.96055650625 430.96877698875L431.27942482625 639.5624460225L348.557095761875 546.8957500256249zM748.2579479375 435.5833913681251L913.70260856875 620.916782110625L592.1490199625 912.9479183825L426.704362459375 727.614527014375L748.2579479375 435.5833913681251L748.2579479375 435.5833913681251zM0 125.125L1001 125.125L1001 0L0 0L0 125.125z" />
    <glyph glyph-name="editor-comment"
      unicode="&#xE017;"
      horiz-adv-x="1001" d="M469.21875 625.625L469.21875 750.75L531.78125 750.75L531.78125 625.625L688.1875 625.625L688.1875 563.0625L531.78125 563.0625L531.78125 437.9375L469.21875 437.9375L469.21875 563.0625L312.8125 563.0625L312.8125 625.625L469.21875 625.625zM412.3975755900001 312.85832202625L875.875 312.85832202625L875.875 875.875L125.063903965 875.875L125.063903965 312.85832202625L312.8125 312.85832202625L312.8125 215.2912073812501L412.3975755900001 312.85832202625zM62.501403839875 250.2958207750001L62.501403839875 938.4375L938.4375 938.4375L938.4375 250.2958207750001L437.9375 250.2958207750001L250.25 66.4115577125L250.25 250.2958207750001L62.501403839875 250.2958207750001z" />
    <glyph glyph-name="editor-cut"
      unicode="&#xE018;"
      horiz-adv-x="1001" d="M782.69122806875 438.563125C886.34816895625 438.563125 970.37872806875 354.5325658874999 970.37872806875 250.875625C970.37872806875 147.2186841125 886.34816895625 63.188125 782.69122806875 63.188125C679.0342871812501 63.188125 595.0037255662501 147.2186841125 595.0037255662501 250.875625C595.16501169125 293.6522463875001 610.0808939225 335.063153425 637.2334155687499 368.11775L502.47378806625 534.28375L366.3377880662501 366.6162499999999C426.7963925225 290.05554703125 418.75109901625 179.9928755625 347.80185815375 113.0377373125C276.852621045 46.08260531875 166.508808090625 44.42090778125 93.57561087875 109.20928143125C20.642414417625 173.9976550812501 9.286596193875 283.768159675 67.412413193125 362.11465915625C125.5382303175 440.4611586375001 233.885416139375 461.4231622 317.03853806625 410.4100000000001L459.93128806625 586.5234375L206.36547556625 899.3359375L259.23078806625 939.063125L502.47378806625 639.1385L744.21529056875 936.9985625L797.0180405687499 897.271375L544.95372556625 586.7736875L687.0331655687501 411.5986875C715.8818541875 429.1000088375 748.94921976875 438.42115191875 782.69122806875 438.563125zM219.62872556625 376.000625C150.5240962225 376.000625 94.50372556625 319.98025434375 94.50372556625 250.875625C94.50372556625 181.77099565625 150.5240962225 125.750625 219.62872556625 125.750625C288.73335491 125.750625 344.75372556625 181.77099565625 344.75372556625 250.875625C344.75372556625 319.98025434375 288.73335491 376.000625 219.62872556625 376.000625zM782.69122806875 125.750625C851.7958574125 125.750625 907.81622806875 181.77099565625 907.81622806875 250.875625C907.81622806875 319.98025434375 851.7958574125 376.000625 782.69122806875 376.000625C713.586598725 376.000625 657.56622806875 319.98025434375 657.56622806875 250.875625C657.56622806875 181.77099565625 713.586598725 125.750625 782.69122806875 125.750625z" />
    <glyph glyph-name="emoji"
      unicode="&#xE019;"
      horiz-adv-x="1001" d="M500.5 0C224.081482625 0 0 224.0814826249999 0 500.5C0 776.918517375 224.081482625 1001 500.5 1001C776.9185173750001 1001 1001 776.918517375 1001 500.5C1001 224.0814826249999 776.9185173750001 0 500.5 0zM500.5 62.5625C742.366199575 62.5625 938.4375 258.633800425 938.4375 500.5C938.4375 742.366202703125 742.366199575 938.4375 500.5 938.4375C258.633797296875 938.4375 62.5625 742.366202703125 62.5625 500.5C62.5625 258.633800425 258.633797296875 62.5625 500.5 62.5625zM312.8125 563.0625C278.260185328125 563.0625 250.25 591.072685328125 250.25 625.625C250.25 660.177314671875 278.260185328125 688.1875 312.8125 688.1875C347.364814671875 688.1875 375.375 660.177314671875 375.375 625.625C375.375 591.072685328125 347.364814671875 563.0625 312.8125 563.0625zM688.1875 563.0625C653.63518845625 563.0625 625.625 591.072685328125 625.625 625.625C625.625 660.177314671875 653.63518845625 688.1875 688.1875 688.1875C722.73981154375 688.1875 750.75 660.177314671875 750.75 625.625C750.75 591.072685328125 722.73981154375 563.0625 688.1875 563.0625zM250.25 437.9375L312.8125 437.9375C312.8125 334.2805591125 396.843055984375 250.25 500.5 250.25C604.1569440156251 250.25 688.1875 334.2805591125 688.1875 437.9375L750.75 437.9375C750.75 299.7282413125 638.7092586875 187.6875 500.5 187.6875C362.2907413125 187.6875 250.25 299.7282413125 250.25 437.9375z" />
    <glyph glyph-name="font-background"
      unicode="&#xE01A;"
      horiz-adv-x="1001" d="M655.41666815625 500.5L345.583333095 500.5L250.25 250.25L187.6875 250.25L469.21875 1001.0000000000242L531.78125 1001.0000000000242L813.3125 250.25L750.75 250.25L655.41666815625 500.5L655.41666815625 500.5zM631.58333363125 563.0625L500.5 907.15625L369.41666636875 563.0625L631.58333363125 563.0625zM125.125 125.125L875.875 125.125L875.875 0L125.125 0L125.125 125.125z" />
    <glyph glyph-name="font-size"
      unicode="&#xE01B;"
      horiz-adv-x="1001" d="M250.25 437.9375L250.25 0L187.6875 0L187.6875 437.9375L0 437.9375L0 500.5L437.9375 500.5L437.9375 437.9375L250.25 437.9375zM688.1875 938.4375L688.1875 0L625.625 0L625.625 938.4375L312.8125 938.4375L312.8125 1001L1001 1001L1001 938.4375L688.1875 938.4375z" />
    <glyph glyph-name="font"
      unicode="&#xE01C;"
      horiz-adv-x="1001" d="M938.4375 47.79108709375C905.2320464687498 18.07140335 861.38267215 0 813.3125 0C709.6555591125 0 625.625 84.0305591125 625.625 187.6875C625.625 291.3444408875 709.6555591125 375.375 813.3125 375.375C861.38267215 375.375 905.2320464687498 357.3035966500001 938.4375 327.58391290625L938.4375 375.375L1001 375.375L1001 0L938.4375 0L938.4375 47.79108709375L938.4375 47.79108709375zM437.9375 437.9375L312.8125 875.875L187.6875 437.9375L437.9375 437.9375L437.9375 437.9375zM455.8125002681249 375.375L169.812499731875 375.375L62.5625 0L1.4e-12 0L281.53125 1000.9999999999756L344.09375 1000.9999999999756L625.625 0L563.0625 0L455.8125002681249 375.375zM813.3125 62.5625C882.41712934375 62.5625 938.4375 118.58287065625 938.4375 187.6875C938.4375 256.7921293437501 882.41712934375 312.8125 813.3125 312.8125C744.20787065625 312.8125 688.1875 256.7921293437501 688.1875 187.6875C688.1875 118.58287065625 744.20787065625 62.5625 813.3125 62.5625z" />
    <glyph glyph-name="format-painter"
      unicode="&#xE01D;"
      horiz-adv-x="1001" d="M500.5 500.5L500.5 375.375L563.0625 375.375L563.0625 0L375.375 0L375.375 375.375L437.9375 375.375L437.9375 563.0625L938.4375 563.0625L938.4375 813.3125L875.875 813.3125L875.875 688.1875L62.5625 688.1875L62.5625 1001L875.875 1001L875.875 875.875L1001 875.875L1001 500.5L500.5 500.5zM813.3125 938.4375L125.125 938.4375L125.125 750.75L813.3125 750.75L813.3125 938.4375z" />
    <glyph glyph-name="h-title"
      unicode="&#xE01E;"
      horiz-adv-x="1001" d="M187.6875 563.0625L813.3125 563.0625L813.3125 1001L875.875 1001L875.875 0L813.3125 0L813.3125 500.5L187.6875 500.5L187.6875 0L125.125 0L125.125 1001L187.6875 1001z" />
    <glyph glyph-name="h1-title"
      unicode="&#xE01F;"
      horiz-adv-x="1001" d="M0 1001L1001 1001L1001 0L0 0L0 1001zM62.5625 938.4375L62.5625 62.5625L938.4375 62.5625L938.4375 938.4375L62.5625 938.4375zM750.75 250.25L813.3125 250.25L813.3125 187.6875L625.625 187.6875L625.625 250.25L688.1875 250.25L688.1875 437.9375L625.625 437.9375L625.625 500.5L750.75 500.5L750.75 250.25zM187.6875 813.3125L688.1875 813.3125L688.1875 750.75L187.6875 750.75L187.6875 813.3125z" />
    <glyph glyph-name="h2-title"
      unicode="&#xE020;"
      horiz-adv-x="1001" d="M0 0L0 1001L1001 1001L1001 0L0 0zM938.4375 938.4375L62.5625 938.4375L62.5625 62.5625L938.4375 62.5625L938.4375 938.4375zM688.1875 750.75L187.6875 750.75L187.6875 813.3125L688.1875 813.3125L688.1875 750.75zM813.3125 500.5L813.3125 312.8125L625.625 312.8125L625.625 250.25L813.3125 250.25L813.3125 187.6875L563.0625 187.6875L563.0625 375.375L750.75 375.375L750.75 437.9375L563.0625 437.9375L563.0625 500.5L813.3125 500.5z" />
    <glyph glyph-name="insert-ordered-list"
      unicode="&#xE021;"
      horiz-adv-x="1001" d="M312.8125 938.4375L1001 938.4375L1001 844.59375L312.8125 844.59375L312.8125 938.4375zM0 1001L125.125 1001L125.125 813.3125L187.6875 813.3125L187.6875 750.75L0 750.75L0 813.3125L62.5625 813.3125L62.5625 938.4375L0 938.4375L0 1001zM312.8125 563.0625L1001 563.0625L1001 469.21875L312.8125 469.21875L312.8125 563.0625zM312.8125 187.6875L1001 187.6875L1001 93.84375L312.8125 93.84375L312.8125 187.6875zM0 62.5625L109.484375 62.5625C118.122453824375 62.5625 125.125 69.5650455499999 125.125 78.203125C125.125 86.8412044500001 118.122453824375 93.84375 109.484375 93.84375L0 93.84375L0 156.40625L109.484375 156.40625C118.122453824375 156.40625 125.125 163.4087955499999 125.125 172.046875C125.125 180.6849544500001 118.122453824375 187.6875 109.484375 187.6875L0 187.6875L0 250.25L93.84375 250.25C145.672221695 250.25 187.6875 208.23472044375 187.6875 156.40625C187.6875 145.43793639375 185.805800805625 134.90911809375 182.347612321875 125.125C185.805800805625 115.3408819062501 187.6875 104.81206360625 187.6875 93.84375C187.6875 42.01527955625 145.672221695 0 93.84375 0L0 0L0 62.5625zM125.125 531.78125C125.125 541.08600921375 121.21484375 548.90632171375 115.349609375 554.4004440975C110.302141324375 559.561226599375 102.481828824375 563.0625 93.84375 563.0625C76.567592976875 563.0625 62.5625 549.057407023125 62.5625 531.78125L0 531.78125C9.221706368875 594.34375 40.502956368875 625.625 93.84375 625.625C145.672221695 625.625 187.6875 583.609721695 187.6875 531.78125C187.6875 495.92510968 156.416264379375 465.683671578125 139.402416278125 453.790052340625C122.388568176875 441.896433103125 110.939550596875 438.0694518200001 110.59170747625 437.9375L187.6875 437.9375L187.6875 375.375L0 375.375L0 437.9375C38.7584432860625 452.166003664375 66.43438176375 465.502793380625 83.02781487 477.9478685231251C102.42387155 492.494911033125 117.154310398125 505.759816436875 122.71227593625 519.7133466524999C124.26645105875 523.4268414375 125.125 527.50378305625 125.125 531.78125z" />
    <glyph glyph-name="insert-quote"
      unicode="&#xE022;"
      horiz-adv-x="1001" d="M250.25 589.761939641875C353.906944015625 589.761939641875 437.9375 505.7313836575 437.9375 402.074439641875C437.9375 298.417494375 353.906944015625 214.3869415187501 250.25 214.3869415187501C146.593055984375 214.3869415187501 62.5625 298.417494375 62.5625 402.074439641875C62.5625 406.14300727 62.883254809375 415.358638695 62.5625 433.355689641875C62.5625 616.46137928375 193.131630566875 811.46121181125 375.375 875.875L375.375 808.8455950575C265.8668762750001 763.17852986375 180.60395728375 671.002627920625 144.26067656 556.9923221362501C174.420553181875 577.666326111875 210.92273577375 589.761939641875 250.25 589.761939641875zM750.75 589.761939641875C854.4069408875 589.761939641875 938.4375 505.7313836575 938.4375 402.074439641875C938.4375 298.417494375 854.4069408875 214.3869415187501 750.75 214.3869415187501C647.0930591125 214.3869415187501 563.0625 298.417494375 563.0625 402.074439641875C563.0625 406.14300727 563.383254809375 415.358638695 563.0625 433.355689641875C563.0625 616.46137928375 693.6316324437499 811.46121181125 875.875 875.875L875.875 808.8455950575C766.366876275 763.17852986375 681.10395478125 671.002627920625 644.7606790625 556.9923221362501C674.9205525562501 577.666326111875 711.422737025 589.761939641875 750.75 589.761939641875z" />
    <glyph glyph-name="insert-unordered-list"
      unicode="&#xE023;"
      horiz-adv-x="1001" d="M312.8125 938.4375L1001 938.4375L1001 844.59375L312.8125 844.59375L312.8125 938.4375zM125.125 750.75C56.02037065625 750.75 0 806.77037065625 0 875.875C0 944.97962934375 56.02037065625 1001 125.125 1001C194.22962934375 1001 250.25 944.97962934375 250.25 875.875C250.25 806.77037065625 194.22962934375 750.75 125.125 750.75zM125.125 813.3125C159.677314671875 813.3125 187.6875 841.322685328125 187.6875 875.875C187.6875 910.427314671875 159.677314671875 938.4375 125.125 938.4375C90.572685328125 938.4375 62.5625 910.427314671875 62.5625 875.875C62.5625 841.322685328125 90.572685328125 813.3125 125.125 813.3125zM125.125 375.375C56.02037065625 375.375 0 431.39537065625 0 500.5C0 569.60462934375 56.02037065625 625.625 125.125 625.625C194.22962934375 625.625 250.25 569.60462934375 250.25 500.5C250.25 431.39537065625 194.22962934375 375.375 125.125 375.375zM125.125 437.9375C159.677314671875 437.9375 187.6875 465.947685328125 187.6875 500.5C187.6875 535.052314671875 159.677314671875 563.0625 125.125 563.0625C90.572685328125 563.0625 62.5625 535.052314671875 62.5625 500.5C62.5625 465.947685328125 90.572685328125 437.9375 125.125 437.9375zM125.125 0C56.02037065625 0 0 56.02037065625 0 125.125C0 194.2296293437501 56.02037065625 250.25 125.125 250.25C194.22962934375 250.25 250.25 194.2296293437501 250.25 125.125C250.25 56.02037065625 194.22962934375 0 125.125 0zM125.125 62.5625C159.677314671875 62.5625 187.6875 90.57268845625 187.6875 125.125C187.6875 159.67731154375 159.677314671875 187.6875 125.125 187.6875C90.572685328125 187.6875 62.5625 159.67731154375 62.5625 125.125C62.5625 90.57268845625 90.572685328125 62.5625 125.125 62.5625zM312.8125 563.0625L1001 563.0625L1001 469.21875L312.8125 469.21875L312.8125 563.0625zM312.8125 187.6875L1001 187.6875L1001 93.84375L312.8125 93.84375L312.8125 187.6875z" />
    <glyph glyph-name="italic"
      unicode="&#xE024;"
      horiz-adv-x="1001" d="M375.375 62.5625L563.0625 938.4375L375.375 938.4375L375.375 1001L813.3125 1001L813.3125 938.4375L625.625 938.4375L437.9375 62.5625L625.625 62.5625L625.625 0L187.6875 0L187.6875 62.5625z" />
    <glyph glyph-name="line-spacing"
      unicode="&#xE025;"
      horiz-adv-x="1001" d="M469.21875 907.15625L469.21875 875.875L907.15625 875.875L907.15625 907.15625L469.21875 907.15625zM469.21875 719.46875L469.21875 688.1875L907.15625 688.1875L907.15625 719.46875L469.21875 719.46875zM469.21875 531.78125L469.21875 500.5L907.15625 500.5L907.15625 531.78125L469.21875 531.78125zM469.21875 344.09375L469.21875 312.8125L907.15625 312.8125L907.15625 344.09375L469.21875 344.09375zM469.21875 156.40625L469.21875 125.125L907.15625 125.125L907.15625 156.40625L469.21875 156.40625zM156.40625 813.3125L156.40625 250.25L250.25 250.25L125.125 93.84375L0 250.25L93.84375 250.25L93.84375 813.3125L0 813.3125L125.125 969.71875L250.25 813.3125L156.40625 813.3125z" />
    <glyph glyph-name="link"
      unicode="&#xE026;"
      horiz-adv-x="1001" d="M281.4686875 321.3835625000001L679.6164375 719.5313125L724.0358125 675.1119375000001L325.8880625 276.9641875L281.4686875 321.3835625000001zM228.134043011875 563.4053030856251C229.100571074375 562.3829767806251 230.084421441875 561.3710408556251 231.08559474 560.3698675575L274.55683380125 516.89862849625L112.75312923875 355.09492143125C45.8322903163125 288.1740862000001 45.8322903163125 179.673969475 112.75312923875 112.7531279875C179.673967598125 45.83229275625 288.17408494875 45.83229275625 355.094923308125 112.7531279875L516.8986284962499 274.55683255L560.3698675575 231.0855922375C561.371040855625 230.08442331875 562.382976780625 229.1005717000001 563.405303085625 228.1340436375L404.7082114075 69.43694883125C312.125609420625 -23.145647525 162.019553320625 -23.145647525 69.43695133375 69.43694883125C-23.1456504654375 162.0195514437501 -23.1456504654375 312.12560754375 69.43695133375 404.7082114075L228.134043011875 563.4053030856251zM437.594696914375 772.8659569881249L596.2917885925 931.56304866625C688.87439245625 1024.1456504654375 838.9804485562499 1024.1456504654375 931.56305116875 931.56304866625C1024.145647525 838.9804466793751 1024.145647525 688.874390579375 931.56305116875 596.2917885925L772.8659563625 437.5946969143751C771.8994283 438.6170232193751 770.9155766812501 439.628959144375 769.9144077625 440.6301324425L726.44316745 484.1013715037501L888.2468720125 645.905076691875C955.16770724375 712.82591505125 955.16770724375 821.326032401875 888.2468720125 888.24687076125C821.326030525 955.1677096836873 712.8259138 955.1677096836873 645.90507856875 888.24687076125L484.10137150375 726.4431661987501L440.6301324425 769.91440526C439.628959144375 770.9155785581249 438.617023219375 771.899428925625 437.594696914375 772.8659569881249z" />
    <glyph glyph-name="markdown"
      unicode="&#xE027;"
      horiz-adv-x="1001" d="M454.706367740625 500.5L650.413764 946.2578125L911.58121429375 946.2578125L911.58121429375 258.0703125L1001 258.0703125L811.4453972625 7.8203125L611.5484375 258.0703125L709.3994344937499 258.0703125L709.3994344937499 759.63752239375L500.5 255.0933760375L405.0201693037501 255.0933760375L202.181777923125 625.8686258825L198.655351895 625.26525686625L198.655351895 255.0933760375L0 255.0933760375L6.5e-12 946.2578125L217.7223873825 946.2578125zM0 195.5078125L200.2 195.5078125L200.2 70.3828125L0 70.3828125z" />
    <glyph glyph-name="multi-picture"
      unicode="&#xE028;"
      horiz-adv-x="1001" d="M125.125 125.125L0 125.125L0 938.4375L875.875 938.4375L875.875 813.3125L1001 813.3125L1001 62.5625L125.125 62.5625L125.125 125.125zM125.125 187.6875L125.125 813.3125L813.3125 813.3125L813.3125 875.875L62.5625 875.875L62.5625 187.6875L125.125 187.6875zM938.4375 750.75L187.6875 750.75L187.6875 350.29501381875L395.0250623068751 438.96086108875L645.4591330687499 284.55741689375L778.31734605625 367.1075533125001L938.4375 266.547406125L938.4375 750.75zM938.4375 207.9176787187501C933.31898034375 207.91405009375 928.1431159 209.0398685375 923.56459820625 211.3962100250001L776.807656625 286.9251760375L641.54086871875 224.2712159187499L399.0645471312501 369.8610290375L199.678414560625 292.89995735C195.8223842575 291.41157045 191.723877970625 290.7077798625001 187.6875 290.71021354375L187.6875 125.125L938.4375 125.125L938.4375 207.9176787187501zM813.3125 500.5C778.76018845625 500.5 750.75 528.510185328125 750.75 563.0625C750.75 597.614814671875 778.76018845625 625.625 813.3125 625.625C847.86481154375 625.625 875.875 597.614814671875 875.875 563.0625C875.875 528.510185328125 847.86481154375 500.5 813.3125 500.5z" />
    <glyph glyph-name="picture"
      unicode="&#xE029;"
      horiz-adv-x="1001" d="M0 938.4375L1001 938.4375L1001 62.5625L0 62.5625L0 938.4375zM62.5625 875.875L62.5625 125.125L938.4375 125.125L938.4375 875.875L62.5625 875.875zM750.75 375.375L563.0625 312.8125L250.25 500.5L62.5625 375.375L62.5625 437.9375L250.25 563.0625L563.0625 375.375L750.75 437.9375L938.4375 312.8125L938.4375 250.25L750.75 375.375zM750.75 563.0625C716.19768845625 563.0625 688.1875 591.072685328125 688.1875 625.625C688.1875 660.177314671875 716.19768845625 688.1875 750.75 688.1875C785.30231154375 688.1875 813.3125 660.177314671875 813.3125 625.625C813.3125 591.072685328125 785.30231154375 563.0625 750.75 563.0625z" />
    <glyph glyph-name="redo"
      unicode="&#xE02A;"
      horiz-adv-x="1001" d="M312.8125 688.1875L688.1875 688.1875L688.1875 938.4375L1001 656.90625L688.1875 375.375L688.1875 625.625L312.8125 625.625C174.6032413125 625.625 62.5625 513.5842586875001 62.5625 375.375C62.5625 237.1657413125 174.6032413125 125.125 312.8125 125.125L563.0625 125.125L563.0625 62.5625L312.8125 62.5625C140.050926640625 62.5625 0 202.6134297687501 0 375.375C0 548.136573359375 140.050926640625 688.1875 312.8125 688.1875z" />
    <glyph glyph-name="rich-text-editor"
      unicode="&#xE02B;"
      horiz-adv-x="1001" d="M887.86512815 724.96740691375L664.4058045625 724.96740691375L664.4058045625 93.35498046875L468.22593692875 93.35498046875L468.22593692875 724.96740691375L311.3920134325 724.96740691375L311.3920134325 938.4375L887.86512815 938.4375zM93.84375 938.4375L244.52986933375 938.4375L244.52986933375 727.46471422625L93.84375 727.46471422625z" />
    <glyph glyph-name="search-replace"
      unicode="&#xE02C;"
      horiz-adv-x="1001" d="M312.8125 907.15625L312.8125 688.1875L93.84375 688.1875L93.84375 93.84375L531.78125 93.84375L531.78125 31.28125L31.28125 31.28125L31.28125 749.387994980625L254.47344297375 969.71875L844.59375 969.71875L844.59375 534.18750009625L782.03125 534.18750009625L782.03125 907.15625L312.8125 907.15625zM250.25 500.5L250.25 563.0625L563.0625 563.0625L563.0625 500.5L250.25 500.5zM250.25 375.375L250.25 437.9375L437.9375 437.9375L437.9375 375.375L250.25 375.375zM688.1875 125.125C584.5305559843749 125.125 500.5 209.1555591125 500.5 312.8125C500.5 416.4694440156251 584.5305559843749 500.5 688.1875 500.5C791.8444408875 500.5 875.875 416.4694440156251 875.875 312.8125C875.875 209.1555591125 791.8444408875 125.125 688.1875 125.125zM688.1875 187.6875C757.29212934375 187.6875 813.3125 243.70787065625 813.3125 312.8125C813.3125 381.9171293437501 757.29212934375 437.9375 688.1875 437.9375C619.08287065625 437.9375 563.0625 381.9171293437501 563.0625 312.8125C563.0625 243.70787065625 619.08287065625 187.6875 688.1875 187.6875zM822.4745654125 134.2870654125001L910.9513037625 45.8103270625001C923.16738889375 33.5942419312501 942.97358155 33.5942419312501 955.1896729375 45.8103270625001C967.40575806875 58.0264184499999 967.40575806875 77.8326111062501 955.1896729375 90.0486962375001L866.7129345875 178.5254345875C854.4968432000001 190.74151971875 834.6906567999999 190.74151971875 822.4745654125 178.5254345875C810.2584802812501 166.3093432000001 810.2584802812501 146.5031568 822.4745654125 134.2870654125001z" />
    <glyph glyph-name="strikethrough"
      unicode="&#xE02D;"
      horiz-adv-x="1001" d="M1001 500.5L1001 375.375L717.27100445 375.375C738.5635382124999 338.56655958125 750.75 295.83142964375 750.75 250.25C750.75 112.0407413125 638.7092586875 0 500.5 0C362.2907413125 0 250.25 112.0407413125 250.25 250.25C250.25 271.852806225 252.9872970625 292.8162800062501 258.133969218125 312.8125L323.4922759818751 312.8125C316.5758983887501 293.24427006875 312.8125 272.1866272125 312.8125 250.25C312.8125 146.5930591125 396.843055984375 62.5625 500.5 62.5625C604.1569440156251 62.5625 688.1875 146.5930591125 688.1875 250.25C688.1875 298.32017215 670.11609665 342.1695464687499 640.39641290625 375.375L0 375.375L0 500.5L334.970610975 500.5C283.0174153056251 546.354837153125 250.25 613.444548591875 250.25 688.1875C250.25 826.3967586875 362.2907413125 938.4375 500.5 938.4375C638.7092586875 938.4375 750.75 826.3967586875 750.75 688.1875C750.75 642.6060709818751 738.5635382124999 599.8709422956249 717.27100445 563.0625L640.39641290625 563.0625C670.11609665 596.267952905625 688.1875 640.1173253474999 688.1875 688.1875C688.1875 791.844444015625 604.1569440156251 875.875 500.5 875.875C396.843055984375 875.875 312.8125 791.844444015625 312.8125 688.1875C312.8125 584.530555984375 396.843055984375 500.5 500.5 500.5L1001 500.5zM283.72899429875 375.375L360.603586468125 375.375L283.72899429875 375.375L283.72899429875 375.375z" />
    <glyph glyph-name="table"
      unicode="&#xE02E;"
      horiz-adv-x="1001" d="M375.375 312.8125L625.625 312.8125L625.625 500.5L375.375 500.5L375.375 312.8125zM375.375 250.25L375.375 62.5625L312.8125 62.5625L312.8125 250.25L62.5625 250.25L62.5625 312.8125L312.8125 312.8125L312.8125 500.5L62.5625 500.5L62.5625 563.0625L938.4375 563.0625L938.4375 500.5L688.1875 500.5L688.1875 312.8125L938.4375 312.8125L938.4375 250.25L688.1875 250.25L688.1875 62.5625L625.625 62.5625L625.625 250.25L375.375 250.25zM62.5625 1001L938.4375 1001C972.98981154375 1001 1001 972.989814671875 1001 938.4375L1001 62.5625C1001 28.01018845625 972.98981154375 0 938.4375 0L62.5625 0C28.010185328125 0 0 28.01018845625 0 62.5625L0 938.4375C0 972.989814671875 28.010185328125 1001 62.5625 1001zM62.5625 938.4375L62.5625 62.5625L938.4375 62.5625L938.4375 938.4375L62.5625 938.4375z" />
    <glyph glyph-name="text-align-center"
      unicode="&#xE02F;"
      horiz-adv-x="1001" d="M547.421875 563.0625L547.421875 437.9375L1001 437.9375L1001 187.6875L547.421875 187.6875L547.421875 0L453.578125 0L453.578125 187.6875L0 187.6875L0 437.9375L453.578125 437.9375L453.578125 563.0625L125.125 563.0625L125.125 813.3125L453.578125 813.3125L453.578125 1001L547.421875 1001L547.421875 813.3125L875.875 813.3125L875.875 563.0625L547.421875 563.0625zM62.5625 375.375L62.5625 250.25L938.4375 250.25L938.4375 375.375L62.5625 375.375zM187.6875 750.75L187.6875 625.625L813.3125 625.625L813.3125 750.75L187.6875 750.75z" />
    <glyph glyph-name="text-align-left"
      unicode="&#xE030;"
      horiz-adv-x="1001" d="M0 1001L93.84375 1001L93.84375 0L0 0L0 1001zM250.25 813.3125L813.3125 813.3125L813.3125 563.0625L250.25 563.0625L250.25 813.3125zM312.8125 750.75L312.8125 625.625L750.75 625.625L750.75 750.75L312.8125 750.75zM250.25 437.9375L1001 437.9375L1001 187.6875L250.25 187.6875L250.25 437.9375zM312.8125 375.375L312.8125 250.25L938.4375 250.25L938.4375 375.375L312.8125 375.375z" />
    <glyph glyph-name="text-align-right"
      unicode="&#xE031;"
      horiz-adv-x="1001" d="M907.15625 1001L1001 1001L1001 0L907.15625 0L907.15625 1001zM187.6875 813.3125L750.75 813.3125L750.75 563.0625L187.6875 563.0625L187.6875 813.3125zM250.25 750.75L250.25 625.625L688.1875 625.625L688.1875 750.75L250.25 750.75zM0 437.9375L750.75 437.9375L750.75 187.6875L0 187.6875L0 437.9375zM62.5625 375.375L62.5625 250.25L688.1875 250.25L688.1875 375.375L62.5625 375.375z" />
    <glyph glyph-name="ue-expand"
      unicode="&#xE032;"
      horiz-adv-x="1001" d="M1001 0L715.0268125 0L715.0268125 62.5625L904.4035 62.5625L688.562875 298.673375L728.97825 342.9050625L943.817875 107.9203125L943.817875 312.8125L1001 312.8125L1001 0zM948.69775 904.4035L751.3130625 688.5628750000001L714.338625 728.97825L910.784875 943.817875L739.48875 943.817875L739.48875 1001L1001 1001L1001 715.0268125L948.69775 715.0268125L948.69775 904.4035zM312.8125 62.5625L312.8125 0L0 0L0 312.8125L62.5625 312.8125L62.5625 107.9203125L297.54725 342.9050625L341.7789375 298.673375L105.6680625 62.5625L312.8125 62.5625zM273.0853125 688.5628750000001L57.182125 904.4035L57.182125 715.0268125L2.13e-11 715.0268125L2.13e-11 1001L285.9731875 1001L285.9731875 943.817875L98.723625 943.817875L313.5006875000001 728.97825L273.0853125 688.5628750000001z" />
    <glyph glyph-name="underline"
      unicode="&#xE033;"
      horiz-adv-x="1001" d="M250.25 1001L250.25 563.0625C250.25 424.8532413125 362.2907413125 312.8125 500.5 312.8125C638.7092586875 312.8125 750.75 424.8532413125 750.75 563.0625L750.75 1001L813.3125 1001L813.3125 563.0625C813.3125 390.300926640625 673.26157023125 250.25 500.5 250.25C327.7384266406251 250.25 187.6875 390.300926640625 187.6875 563.0625L187.6875 1001L250.25 1001zM125.125 125.125L875.875 125.125L875.875 0L125.125 0L125.125 125.125z" />
    <glyph glyph-name="undo"
      unicode="&#xE034;"
      horiz-adv-x="1001" d="M688.1875 688.1875C860.94907023125 688.1875 1001 548.136573359375 1001 375.375C1001 202.6134297687501 860.94907023125 62.5625 688.1875 62.5625L437.9375 62.5625L437.9375 125.125L688.1875 125.125C826.3967586875 125.125 938.4375 237.1657413125 938.4375 375.375C938.4375 513.5842586875001 826.3967586875 625.625 688.1875 625.625L312.8125 625.625L312.8125 375.375L0 656.90625L312.8125 938.4375L312.8125 688.1875L688.1875 688.1875z" />
    <glyph glyph-name="ban"
      unicode="&#xE035;"
      horiz-adv-x="1001" d="M889.44866635625 185.53558148125C715.4986213374999 -29.27483934375 400.345996675625 -62.3987176312501 185.535578353125 111.55133364375C-29.2748394063125 285.5013786625001 -62.3987150661875 600.654003324375 111.551331766875 815.464421646875C285.501378036875 1030.2748394063126 600.654003324375 1063.3987150661876 815.46441851875 889.448668233125C1030.27483934375 715.4986219631251 1063.39871763125 400.345996675625 889.44866635625 185.53558148125zM748.8076283187501 218.9242180125L173.45126799 684.838612583125C84.8751678775 528.12955195 119.73381545125 325.83700524375 264.27668392125 208.7884986687501C408.81955239125 91.73999209375 613.93904196625 99.702077475 748.8076283187501 218.9242180125zM252.1923729325 782.075780110625L827.5487345125 316.16138929375C916.124834625 472.87044805 881.2661858 675.1629941306251 736.72331858125 792.21150133125C592.18044760875 909.260008531875 387.06095803375 901.297925653125 252.1923729325 782.075780110625z" />
    <glyph glyph-name="dot-status"
      unicode="&#xE036;"
      horiz-adv-x="1001" d="M250.25 500.5A250.25 250.25 0 0 1 750.75 500.5A250.25 250.25 0 0 1 250.25 500.5" />
    <glyph glyph-name="error-o"
      unicode="&#xE037;"
      horiz-adv-x="1001" d="M0 500.5A500.5 500.5 0 0 1 1001 500.5A500.5 500.5 0 0 1 0 500.5M504.9461798631251 584.530555984375L681.89964968125 761.484028305L770.37638803125 673.007291831875L593.4229157106249 496.0538201368749L770.37638803125 319.10035031875L681.89964968125 230.62361196875L504.9461798631251 407.5770842893751L327.992708168125 230.62361196875L239.515971695 319.10035031875L416.469444015625 496.0538201368749L239.515971695 673.007291831875L327.992708168125 761.484028305z" />
    <glyph glyph-name="error"
      unicode="&#xE038;"
      horiz-adv-x="1001" d="M504.9461798631251 584.530555984375L681.89964968125 761.484028305L770.37638803125 673.007291831875L593.4229157106249 496.0538201368749L770.37638803125 319.10035031875L681.89964968125 230.62361196875L504.9461798631251 407.5770842893751L327.992708168125 230.62361196875L239.515971695 319.10035031875L416.469444015625 496.0538201368749L239.515971695 673.007291831875L327.992708168125 761.484028305z" />
    <glyph glyph-name="forbidding-o"
      unicode="&#xE039;"
      horiz-adv-x="1001" d="M0 500.5A500.5 500.5 0 0 1 1001 500.5A500.5 500.5 0 0 1 0 500.5M250.25 563.0625H750.75V437.9375H250.25V563.0625z" />
    <glyph glyph-name="forbidding"
      unicode="&#xE03A;"
      horiz-adv-x="1001" d="M250.25 563.0625L750.75 563.0625L750.75 437.9375L250.25 437.9375z" />
    <glyph glyph-name="info-o"
      unicode="&#xE03B;"
      horiz-adv-x="1001" d="M0 500.5A500.5 500.5 0 0 1 1001 500.5A500.5 500.5 0 0 1 0 500.5M437.9375 187.6875L437.9375 625.625L563.0625 625.625L563.0625 187.6875L437.9375 187.6875zM437.9375 688.1875L437.9375 813.3125L563.0625 813.3125L563.0625 688.1875L437.9375 688.1875z" />
    <glyph glyph-name="info"
      unicode="&#xE03C;"
      horiz-adv-x="1001" d="M437.9375 187.6875L437.9375 625.625L563.0625 625.625L563.0625 187.6875L437.9375 187.6875zM437.9375 688.1875L437.9375 813.3125L563.0625 813.3125L563.0625 688.1875L437.9375 688.1875z" />
    <glyph glyph-name="priority"
      unicode="&#xE03D;"
      horiz-adv-x="1001" d="M500.5 250.25C638.7092586875 250.25 750.75 362.2907413125 750.75 500.5C750.75 638.7092586875001 638.7092586875 750.75 500.5 750.75C362.2907413125 750.75 250.25 638.7092586875001 250.25 500.5C250.25 362.2907413125 362.2907413125 250.25 500.5 250.25zM500.5 62.5625C258.633797296875 62.5625 62.5625 258.633800425 62.5625 500.5C62.5625 742.366202703125 258.633797296875 938.4375 500.5 938.4375C742.366199575 938.4375 938.4375 742.366202703125 938.4375 500.5C938.4375 258.633800425 742.366199575 62.5625 500.5 62.5625z" />
    <glyph glyph-name="right-o"
      unicode="&#xE03E;"
      horiz-adv-x="1001" d="M0 500.5A500.5 500.5 0 0 1 1001 500.5A500.5 500.5 0 0 1 0 500.5M408.879340244375 389.2529522131249L762.7862867625 743.1598962287501L851.26301885625 654.683159755625L408.879340244375 212.29948114375L187.6875 433.491320136875L276.1642358475001 521.968055984375L408.879340244375 389.2529522131249z" />
    <glyph glyph-name="right"
      unicode="&#xE03F;"
      horiz-adv-x="1001" d="M408.879340244375 389.2529522131249L762.7862867625 743.1598962287501L851.26301885625 654.683159755625L408.879340244375 212.29948114375L187.6875 433.491320136875L276.1642358475001 521.968055984375L408.879340244375 389.2529522131249z" />
    <glyph glyph-name="running-o"
      unicode="&#xE040;"
      horiz-adv-x="1001" d="M0 500.5A500.5 500.5 0 0 1 1001 500.5A500.5 500.5 0 0 1 0 500.5M500.465593753125 272.96930285625C583.3585332575 273.15164751875 659.60018499375 318.3497629812499 699.50532526875 390.96325643375L707.1628626562499 404.8973190762501L795.210991575 354.6104124062499L787.7122753499999 341.1009601999999C715.0734716124999 210.2371083312501 563.081534015 145.03844980625 418.138013418125 182.5649450625C273.192113569375 220.0920596875001 171.98254198125 350.8491486500001 172.046904404375 500.50007132125L172.04687374875 560.539956851875L431.21732528875 431.022531314375L312.722764729375 371.80622854375C354.706206855 310.6721242625 424.312186423125 272.9693341374999 500.465593753125 272.96930285625zM500.534406246875 728.03081726375C417.6414667425001 727.8484694731251 341.3998162575 682.65035213375 301.494676608125 610.036860558125L293.837136718125 596.102797915625L205.789010301875 646.3897045856249L213.28772339875 659.8991567918749C285.926526510625 790.76300678375 437.918465985 855.96166656 582.8619865818749 818.435170678125C727.80788705625 780.90805918125 829.01745801875 650.15096771625 828.95309371875 500.500045045L828.953125 440.46016014L569.78267471125 569.9775856775L688.27723339375 629.193885945625C646.29379189375 690.32799460625 576.6878135768751 728.030781603125 500.534406246875 728.03081726375z" />
    <glyph glyph-name="running"
      unicode="&#xE041;"
      horiz-adv-x="1001" d="M500.465593753125 272.96930285625C583.3585332575 273.15164751875 659.60018499375 318.3497629812499 699.50532526875 390.96325643375L707.1628626562499 404.8973190762501L795.210991575 354.6104124062499L787.7122753499999 341.1009601999999C715.0734716124999 210.2371083312501 563.081534015 145.03844980625 418.138013418125 182.5649450625C273.192113569375 220.0920596875001 171.98254198125 350.8491486500001 172.046904404375 500.50007132125L172.04687374875 560.539956851875L431.21732528875 431.022531314375L312.722764729375 371.80622854375C354.706206855 310.6721242625 424.312186423125 272.9693341374999 500.465593753125 272.96930285625zM500.534406246875 728.03081726375C417.6414667425001 727.8484694731251 341.3998162575 682.65035213375 301.494676608125 610.036860558125L293.837136718125 596.102797915625L205.789010301875 646.3897045856249L213.28772339875 659.8991567918749C285.926526510625 790.76300678375 437.918465985 855.96166656 582.8619865818749 818.435170678125C727.80788705625 780.90805918125 829.01745801875 650.15096771625 828.95309371875 500.500045045L828.953125 440.46016014L569.78267471125 569.9775856775L688.27723339375 629.193885945625C646.29379189375 690.32799460625 576.6878135768751 728.030781603125 500.534406246875 728.03081726375zM500.465593753125 272.96930285625C583.3585332575 273.15164751875 659.60018499375 318.3497629812499 699.50532526875 390.96325643375L707.1628626562499 404.8973190762501L795.210991575 354.6104124062499L787.7122753499999 341.1009601999999C715.0734716124999 210.2371083312501 563.081534015 145.03844980625 418.138013418125 182.5649450625C273.192113569375 220.0920596875001 171.98254198125 350.8491486500001 172.046904404375 500.50007132125L172.04687374875 560.539956851875L431.21732528875 431.022531314375L312.722764729375 371.80622854375C354.706206855 310.6721242625 424.312186423125 272.9693341374999 500.465593753125 272.96930285625zM500.534406246875 728.03081726375C417.6414667425001 727.8484694731251 341.3998162575 682.65035213375 301.494676608125 610.036860558125L293.837136718125 596.102797915625L205.789010301875 646.3897045856249L213.28772339875 659.8991567918749C285.926526510625 790.76300678375 437.918465985 855.96166656 582.8619865818749 818.435170678125C727.80788705625 780.90805918125 829.01745801875 650.15096771625 828.95309371875 500.500045045L828.953125 440.46016014L569.78267471125 569.9775856775L688.27723339375 629.193885945625C646.29379189375 690.32799460625 576.6878135768751 728.030781603125 500.534406246875 728.03081726375z" />
    <glyph glyph-name="solved"
      unicode="&#xE042;"
      horiz-adv-x="1001" d="M125.125 875.875L875.875 875.875L875.875 750.75L125.125 750.75L125.125 875.875zM125.125 625.625L625.625 625.625L625.625 500.5L125.125 500.5L125.125 625.625zM125.125 375.375L312.8125 375.375L312.8125 250.25L125.125 250.25L125.125 375.375zM625.625 250.25L901.78923835 526.4142358475001L990.26597044375 437.9375L625.625 73.29652955625L386.1090283050001 312.8125L474.5857641525 401.2892358475L625.625 250.25z" />
    <glyph glyph-name="terminate"
      unicode="&#xE043;"
      horiz-adv-x="1001" d="M500.5 0C224.081482625 0 0 224.0814826249999 0 500.5C0 776.918517375 224.081482625 1001 500.5 1001C776.9185173750001 1001 1001 776.918517375 1001 500.5C1001 224.0814826249999 776.9185173750001 0 500.5 0zM344.09375 688.1875C326.817592976875 688.1875 312.8125 674.182407023125 312.8125 656.90625L312.8125 344.09375C312.8125 326.8175911000001 326.817592976875 312.8125 344.09375 312.8125L656.90625 312.8125C674.1824088999999 312.8125 688.1875 326.8175911000001 688.1875 344.09375L688.1875 656.90625C688.1875 674.182407023125 674.1824088999999 688.1875 656.90625 688.1875L344.09375 688.1875z" />
    <glyph glyph-name="timeout"
      unicode="&#xE044;"
      horiz-adv-x="1001" d="M500.5 0C224.081482625 0 0 224.0814826249999 0 500.5C0 776.918517375 224.081482625 1001 500.5 1001C776.9185173750001 1001 1001 776.918517375 1001 500.5C1001 224.0814826249999 776.9185173750001 0 500.5 0zM563.0625 531.78125L563.0625 719.46875C563.0625 754.021064671875 535.052314671875 782.03125 500.5 782.03125C465.947685328125 782.03125 437.9375 754.021064671875 437.9375 719.46875L437.9375 469.21875C437.9375 434.666435328125 465.947685328125 406.65625 500.5 406.65625L750.75 406.65625C785.30231154375 406.65625 813.3125 434.666435328125 813.3125 469.21875C813.3125 503.771064671875 785.30231154375 531.78125 750.75 531.78125L563.0625 531.78125z" />
    <glyph glyph-name="unsolved"
      unicode="&#xE045;"
      horiz-adv-x="1001" d="M688.1875 338.72673835L820.90260126875 471.441840244375L909.37933961875 382.9651037712501L776.66423835 250.25L909.37933961875 117.53489873125L820.90260126875 29.05816038125L688.1875 161.77326165L555.47239622875 29.05816038125L466.995659755625 117.53489873125L599.7107641525 250.25L466.995659755625 382.9651037712501L555.47239622875 471.441840244375L688.1875 338.72673835zM125.125 875.875L875.875 875.875L875.875 750.75L125.125 750.75L125.125 875.875zM125.125 625.625L625.625 625.625L625.625 500.5L125.125 500.5L125.125 625.625zM125.125 375.375L312.8125 375.375L312.8125 250.25L125.125 250.25L125.125 375.375z" />
    <glyph glyph-name="waiting"
      unicode="&#xE046;"
      horiz-adv-x="1001" d="M500.5 0C224.081482625 0 0 224.0814826249999 0 500.5C0 776.918517375 224.081482625 1001 500.5 1001C776.9185173750001 1001 1001 776.918517375 1001 500.5C1001 224.0814826249999 776.9185173750001 0 500.5 0zM375.375 688.1875C340.822685328125 688.1875 312.8125 660.177314671875 312.8125 625.625L312.8125 375.375C312.8125 340.8226884562501 340.822685328125 312.8125 375.375 312.8125C409.927314671875 312.8125 437.9375 340.8226884562501 437.9375 375.375L437.9375 625.625C437.9375 660.177314671875 409.927314671875 688.1875 375.375 688.1875zM625.625 688.1875C591.072685328125 688.1875 563.0625 660.177314671875 563.0625 625.625L563.0625 375.375C563.0625 340.8226884562501 591.072685328125 312.8125 625.625 312.8125C660.17731154375 312.8125 688.1875 340.8226884562501 688.1875 375.375L688.1875 625.625C688.1875 660.177314671875 660.17731154375 688.1875 625.625 688.1875z" />
    <glyph glyph-name="warning-o"
      unicode="&#xE047;"
      horiz-adv-x="1001" d="M0 500.5A500.5 500.5 0 0 1 1001 500.5A500.5 500.5 0 0 1 0 500.5M437.9375 813.3125L563.0625 813.3125L563.0625 375.375L437.9375 375.375L437.9375 813.3125zM437.9375 312.8125L563.0625 312.8125L563.0625 187.6875L437.9375 187.6875L437.9375 312.8125z" />
    <glyph glyph-name="warning"
      unicode="&#xE048;"
      horiz-adv-x="1001" d="M437.9375 813.3125L563.0625 813.3125L563.0625 375.375L437.9375 375.375L437.9375 813.3125zM437.9375 312.8125L563.0625 312.8125L563.0625 187.6875L437.9375 187.6875L437.9375 312.8125z" />
    <glyph glyph-name="add-2"
      unicode="&#xE049;"
      horiz-adv-x="1001" d="M500.5 969.71875C759.6423584749999 969.71875 969.71875 759.64235972625 969.71875 500.5C969.71875 241.3576415250001 759.6423584749999 31.28125 500.5 31.28125C241.35764027375 31.28125 31.28125 241.3576415250001 31.28125 500.5C31.28125 759.64235972625 241.35764027375 969.71875 500.5 969.71875zM500.5 844.59375C310.4622696175 844.59375 156.40625 690.5377303825001 156.40625 500.5C156.40625 310.46227086875 310.4622696175 156.40625 500.5 156.40625C690.53772913125 156.40625 844.59375 310.46227086875 844.59375 500.5C844.59375 690.5377303825001 690.53772913125 844.59375 500.5 844.59375zM563.0625 688.1875L563.0625 563.0625L688.1875 563.0625L688.1875 437.9375L563.0625 437.9375L563.0625 312.8125L437.9375 312.8125L437.9375 437.9375L312.8125 437.9375L312.8125 563.0625L437.9375 563.0625L437.9375 688.1875L563.0625 688.1875z" />
    <glyph glyph-name="add-bug"
      unicode="&#xE04A;"
      horiz-adv-x="1001" d="M813.3125 563.0625L625.625 563.0625L625.625 375.375L531.78125 375.375L531.78125 563.0625L469.21875 563.0625L469.21875 375.375L437.9375 375.375L437.9375 125.125C362.00471181875 140.62471548125 297.22709891875 184.56786473125 252.6124125525 244.14758493125L187.6875 211.4612500000001L187.6875 62.5625L62.5625 62.5625L62.5625 289.03875L198.2356501125 356.60929679375C191.336551030625 382.82551432125 187.681824955625 410.1320792318751 187.6875 437.9375L62.5625 437.9375L62.5625 563.0625L187.6874974975 563.0625L187.687494995 680.5734316631249L36.810695546625 831.45023086125L125.287431644375 919.92696670875L294.464398353125 750.75L743.3919117625 750.75L912.45467438125 919.81276512125L1000.93141273125 831.336028648125L813.36072943125 643.76534847625L813.3125 563.0625L813.3125 563.0625zM938.4375 62.5625L813.3125 62.5625L938.4375 62.5625L938.4375 62.5625zM563.0625 125.125L531.78125 125.125L563.0625 125.125L563.0625 125.125zM312.8125 813.3125C312.8125 916.969444015625 396.843055984375 1001.0000000000006 500.5 1001.0000000000006C604.1569440156251 1001.0000000000006 688.1875 916.969444015625 688.1875 813.3125L312.8125 813.3125zM688.1875 312.8125L688.1875 500.5L813.3125 500.5L813.3125 312.8125L1001 312.8125L1001 187.6875L813.3125 187.6875L813.3125 0L688.1875 0L688.1875 187.6875L500.5 187.6875L500.5 312.8125L688.1875 312.8125z" />
    <glyph glyph-name="add-child-node"
      unicode="&#xE04B;"
      horiz-adv-x="1001" d="M375.375 218.96875L375.375 344.09375L584.4027214025 344.09375C533.830464041875 310.4688587000001 500.5 252.9705553375 500.5 187.6875C500.5 122.4044446625001 533.830464041875 64.9061413 584.4027214025 31.28125L375.375 31.28125L375.375 156.40625L125.125 156.40625L125.125 406.65625L0 406.65625L0 656.90625L625.625 656.90625L625.625 406.65625L187.6875 406.65625L187.6875 218.96875L375.375 218.96875zM0 969.71875L625.625 969.71875L625.625 719.46875L0 719.46875L0 969.71875zM791.9722810999999 344.09375L1001 344.09375L1001 31.28125L791.9722810999999 31.28125C842.54453408125 64.9061413 875.875 122.4044446625001 875.875 187.6875C875.875 252.9705553375 842.54453408125 310.4688587000001 791.9722810999999 344.09375L791.9722810999999 344.09375zM656.90625 218.96875L656.90625 281.53125L719.46875 281.53125L719.46875 218.96875L782.03125 218.96875L782.03125 156.40625L719.46875 156.40625L719.46875 93.84375L656.90625 93.84375L656.90625 156.40625L594.34375 156.40625L594.34375 218.96875L656.90625 218.96875z" />
    <glyph glyph-name="add-directory"
      unicode="&#xE04C;"
      horiz-adv-x="1001" d="M813.3125 563.0625L187.6875 563.0625L187.6875 250.25L375.375 250.25L375.375 187.6875L500.5 187.6875L500.5 125.125L125.125 125.125C90.572685328125 125.125 62.5625 153.13518845625 62.5625 187.6875L62.5625 875.875C62.5625 910.427314671875 90.572685328125 938.4375 125.125 938.4375L375.375 938.4375L500.5 813.3125L875.875 813.3125C910.42731154375 813.3125 938.4375 785.302314671875 938.4375 750.75L938.4375 437.9375L813.3125 437.9375L813.3125 563.0625zM813.3125 625.625L813.3125 688.1875L187.6875 688.1875L187.6875 625.625L813.3125 625.625zM625.625 375.375L625.625 500.5L750.75 500.5L750.75 375.375L875.875 375.375L875.875 250.25L750.75 250.25L750.75 125.125L625.625 125.125L625.625 250.25L500.5 250.25L500.5 375.375L625.625 375.375z" />
    <glyph glyph-name="add-file"
      unicode="&#xE04D;"
      horiz-adv-x="1001" d="M437.9375 187.6875L437.9375 62.5625L125.125 62.5625L125.125 688.1875L375.375 938.4375L875.875 938.4375L875.875 563.0625L750.75 563.0625L750.75 813.3125L437.9375 813.3125L437.9375 625.625L250.25 625.625L250.25 187.6875L437.9375 187.6875zM688.1875 312.8125L688.1875 500.5L813.3125 500.5L813.3125 312.8125L1001 312.8125L1001 187.6875L813.3125 187.6875L813.3125 0L688.1875 0L688.1875 187.6875L500.5 187.6875L500.5 312.8125L688.1875 312.8125z" />
    <glyph glyph-name="add-fold"
      unicode="&#xE04E;"
      horiz-adv-x="1001" d="M437.9375 250.25L437.9375 125.125L62.5625 125.125L62.5625 875.875L375.375 875.875L500.5 750.75L938.4375 750.75L938.4375 563.0625L813.3125 563.0625L813.3125 625.625L462.615198045 625.625L337.490198045 750.75L187.6875 750.75L187.6875 250.25L437.9375 250.25zM688.1875 312.8125L688.1875 500.5L813.3125 500.5L813.3125 312.8125L1001 312.8125L1001 187.6875L813.3125 187.6875L813.3125 0L688.1875 0L688.1875 187.6875L500.5 187.6875L500.5 312.8125L688.1875 312.8125z" />
    <glyph glyph-name="add-interface-use-case"
      unicode="&#xE04F;"
      horiz-adv-x="1001" d="M625.625 813.3125L625.625 1001L750.75 1001L750.75 813.3125L938.4375 813.3125L938.4375 500.5C938.4375 279.87510175625 775.2928996312501 97.3546636562501 563.0625 66.99748680625L563.0625 0L437.9375 0L437.9375 66.99748680625C225.70709786625 97.3546636562501 62.5625 279.87510175625 62.5625 500.5L62.5625 813.3125L250.25 813.3125L250.25 1001L375.375 1001L375.375 813.3125L625.625 813.3125zM437.9375 500.5L312.8125 500.5L312.8125 375.375L437.9375 375.375L437.9375 250.25L563.0625 250.25L563.0625 375.375L688.1875 375.375L688.1875 500.5L563.0625 500.5L563.0625 625.625L437.9375 625.625L437.9375 500.5z" />
    <glyph glyph-name="add-label"
      unicode="&#xE050;"
      horiz-adv-x="1001" d="M843.5459657625 438.525364151875L683.69156480625 438.525364151875L790.58092238125 623.66316137125L712.24873094375 825.1250826568751C701.617241325 852.468117125625 673.4138786374999 868.751337829375 644.4183746 864.2869585349999L430.781133908125 831.39366435125L164.125921334375 369.2391014812499L523.79832129625 161.582145725L561.37705248625 226.6704189750001L560.849036873125 63.8205192624999L627.2100209375 63.8205192624999L608.2747214293751 31.023617625C590.9985637806251 1.1004368375001 552.735938755 -9.1520053625001 522.81275671625 8.1241535375L31.720185872375 291.65658396875C1.7970036084 308.93274286875 -8.4554358013125 347.1953672687501 8.820721534625 377.118546805L320.8615128468751 917.589051754375C330.171179463125 933.71386733625 346.179284075625 944.8541639411874 364.5341011812501 947.9815054084374L665.69398520625 999.2939097954312C723.59003591875 1009.1583899271874 780.5554131375 977.428570243125 802.6463444999999 923.011187223125L923.51061928125 625.28193602875C930.7681257875 607.4042593368749 929.37059215 587.177983266875 919.723279475 570.4683440706251L843.5459657625 438.525364151875zM750.75 250.25L750.75 375.375L875.875 375.375L875.875 250.25L1001 250.25L1001 125.125L875.875 125.125L875.875 0L750.75 0L750.75 125.125L625.625 125.125L625.625 250.25L750.75 250.25zM594.34375 563.0625C542.5152783049999 563.0625 500.5 605.077778305 500.5 656.90625C500.5 708.734721695 542.5152783049999 750.75 594.34375 750.75C646.17222044375 750.75 688.1875 708.734721695 688.1875 656.90625C688.1875 605.077778305 646.17222044375 563.0625 594.34375 563.0625z" />
    <glyph glyph-name="add-manual-use-case"
      unicode="&#xE051;"
      horiz-adv-x="1001" d="M65.1893467225 365.1782634500001C29.1862645449375 402.460545361875 30.223261693625 461.870071788125 67.50554435625 497.8731532775C100.734899265 529.962368560625 151.54211947875 532.6269723775 187.6875 506.4297112875L187.6875 907.15625C187.6875 958.9847220078124 229.702778305 1001 281.53125 1001C333.359721695 1001 375.375 958.9847220078124 375.375 907.15625L375.375 721.217735363125C375.375 773.046207058125 417.3902783050001 815.061485363125 469.21875 815.061485363125C521.0472216950001 815.061485363125 563.0625 773.046207058125 563.0625 721.217735363125C563.0625 773.046207058125 605.0777783049999 815.061485363125 656.90625 815.061485363125C708.73472044375 815.061485363125 750.75 773.046207058125 750.75 721.217735363125C750.75 773.046207058125 792.76527955625 815.061485363125 844.59375 815.061485363125C896.42222044375 815.061485363125 938.4375 773.046207058125 938.4375 721.217735363125L938.4375 375.375C938.4375 168.06111196875 770.37638803125 0 563.0625 0C459.37398131625 0 365.504635120625 42.04088013125 297.57022295 110.00687823125C282.792782146875 124.7911852687501 205.3324898625 209.848313675 65.1893467225 365.1782634500001zM500.5 500.5L375.375 500.5L375.375 375.375L500.5 375.375L500.5 250.25L625.625 250.25L625.625 375.375L750.75 375.375L750.75 500.5L625.625 500.5L625.625 625.625L500.5 625.625L500.5 500.5z" />
    <glyph glyph-name="add-member"
      unicode="&#xE052;"
      horiz-adv-x="1001" d="M741.49631180625 444.1214552775L840.3605084875 444.1214552775L840.3605084875 295.82516088125L988.60736975 295.82516088125L988.60736975 196.9609641999999L840.3605084875 196.9609641999999L840.3605084875 48.6646660500001L741.49631180625 48.6646660500001L741.49631180625 196.9609641999999L593.150583025 196.9609641999999L593.150583025 295.82516088125L741.49631180625 295.82516088125L741.49631180625 444.1214552775zM444.8888888193751 444.116512214375C308.3574318825 444.116512214375 197.728395239375 554.7949813656251 197.728395239375 691.27700642C197.728395239375 827.75903084875 308.3574318825 938.4375 444.8888888193751 938.4375C581.4203457562501 938.4375 692.049383025 827.75903084875 692.049383025 691.27700642C692.049383025 554.7949813656251 581.4203457562501 444.116512214375 444.8888888193751 444.116512214375zM494.320987785625 394.6844138737501L494.320987785625 98.091818825L642.61728155625 98.091818825L642.61728155625 48.6597236125001L0 48.6597236125001C0 238.9733033187501 155.711111180625 394.6844138737501 346.0246915125 394.6844138737501L494.320987785625 394.6844138737501z" />
    <glyph glyph-name="add-sibling-node"
      unicode="&#xE053;"
      horiz-adv-x="1001" d="M375.375 125.125L375.375 187.6875L437.9375 187.6875L437.9375 125.125L500.5 125.125L500.5 62.5625L437.9375 62.5625L437.9375 0L375.375 0L375.375 62.5625L312.8125 62.5625L312.8125 125.125L375.375 125.125zM250.25 437.9375L62.5625 437.9375L62.5625 125.125L250.25 125.125L250.25 62.5625L0 62.5625L0 907.15625L250.25 907.15625L250.25 1001L1001 1001L1001 750.75L250.25 750.75L250.25 844.59375L62.5625 844.59375L62.5625 500.5L250.25 500.5L250.25 594.34375L1001 594.34375L1001 344.09375L250.25 344.09375L250.25 437.9375z" />
    <glyph glyph-name="add-sub-module"
      unicode="&#xE054;"
      horiz-adv-x="1001" d="M250.25 563.0625L250.25 625.625C250.25 763.8342586875 362.2907413125 875.875 500.5 875.875L563.0625 875.875L563.0625 750.75L500.5 750.75C431.39537065625 750.75 375.375 694.72962934375 375.375 625.625L375.375 375.375C375.375 306.27037065625 431.39537065625 250.25 500.5 250.25L563.0625 250.25L563.0625 125.125L500.5 125.125C362.2907413125 125.125 250.25 237.1657413125 250.25 375.375L250.25 437.9375L62.5625 437.9375L62.5625 563.0625L250.25 563.0625zM813.3125 625.625C709.6555591125 625.625 625.625 709.655555984375 625.625 813.3125C625.625 916.969444015625 709.6555591125 1001 813.3125 1001C916.9694408875 1001 1001 916.969444015625 1001 813.3125C1001 709.655555984375 916.9694408875 625.625 813.3125 625.625zM813.3125 750.75C847.86481154375 750.75 875.875 778.760185328125 875.875 813.3125C875.875 847.864814671875 847.86481154375 875.875 813.3125 875.875C778.76018845625 875.875 750.75 847.864814671875 750.75 813.3125C750.75 778.760185328125 778.76018845625 750.75 813.3125 750.75zM750.75 250.25L750.75 375.375L875.875 375.375L875.875 250.25L1001 250.25L1001 125.125L875.875 125.125L875.875 0L750.75 0L750.75 125.125L625.625 125.125L625.625 250.25L750.75 250.25z" />
    <glyph glyph-name="add-sub-node"
      unicode="&#xE055;"
      horiz-adv-x="1001" d="M688.1875 250.25L688.1875 375.375L813.3125 375.375L813.3125 250.25L938.4375 250.25L938.4375 125.125L813.3125 125.125L813.3125 0L688.1875 0L688.1875 125.125L563.0625 125.125L563.0625 250.25L688.1875 250.25zM500.5 875.875L500.5 750.75L437.9375 750.75C403.385185328125 750.75 375.375 722.739814671875 375.375 688.1875L375.375 312.8125C375.375 278.2601884562501 403.385185328125 250.25 437.9375 250.25L500.5 250.25L500.5 125.125L437.9375 125.125C334.280555984375 125.125 250.25 209.1555591125 250.25 312.8125L250.25 437.9375L62.5625 437.9375L62.5625 563.0625L250.25 563.0625L250.25 688.1875C250.25 791.844444015625 334.280555984375 875.875 437.9375 875.875L500.5 875.875zM563.0625 625.625L563.0625 1001L938.4375 1001L938.4375 625.625L563.0625 625.625zM688.1875 750.75L813.3125 750.75L813.3125 875.875L688.1875 875.875L688.1875 750.75z" />
    <glyph glyph-name="add"
      unicode="&#xE056;"
      horiz-adv-x="1001" d="M437.9375 563.0625L437.9375 875.875L563.0625 875.875L563.0625 563.0625L875.875 563.0625L875.875 437.9375L563.0625 437.9375L563.0625 125.125L437.9375 125.125L437.9375 437.9375L125.125 437.9375L125.125 563.0625z" />
    <glyph glyph-name="all-close"
      unicode="&#xE057;"
      horiz-adv-x="1001" d="M938.4375 437.9375L938.4375 62.5625L563.0625 62.5625L563.0625 187.6875L813.3125 187.6875L813.3125 437.9375L938.4375 437.9375zM437.9375 437.9375L437.9375 125.125L324.1988750000001 238.863625L151.0392358475 65.70642203125L62.5625 154.18316038125L235.7355 327.327L125.125 437.9375L437.9375 437.9375zM437.9375 938.4375L437.9375 813.3125L187.6875 813.3125L187.6875 563.0625L62.5625 563.0625L62.5625 938.4375L437.9375 938.4375zM849.96076165 938.4375L938.4375 849.9607641525L765.2645 676.816923908125L875.875 566.206423908125L563.0625 566.206423908125L563.0625 879.018923908125L676.801125 765.280298908125L849.96076165 938.4375z" />
    <glyph glyph-name="all-project"
      unicode="&#xE058;"
      horiz-adv-x="1001" d="M314.383640195625 462.334044046875L62.5625 563.0625L62.5625 688.1875C62.5625 722.739814671875 90.572685328125 750.75 125.125 750.75L250.25 750.75L250.25 813.3125C250.25 882.41712934375 306.27037065625 938.4375 375.375 938.4375L625.625 938.4375C694.72962934375 938.4375 750.75 882.41712934375 750.75 813.3125L750.75 750.75L875.875 750.75C910.42731154375 750.75 938.4375 722.739814671875 938.4375 688.1875L938.4375 563.0625L686.6163616812499 462.334044046875C687.652890925 454.348515245625 688.1875 446.2054396800001 688.1875 437.9375C688.1875 334.2805591125 604.1569440156251 250.25 500.5 250.25C396.843055984375 250.25 312.8125 334.2805591125 312.8125 437.9375C312.8125 446.2054396800001 313.347107198125 454.348515245625 314.383640195625 462.334044046875L314.383640195625 462.334044046875zM938.4375 500.5L938.4375 125.125C938.4375 90.57268845625 910.42731154375 62.5625 875.875 62.5625L125.125 62.5625C90.572685328125 62.5625 62.5625 90.57268845625 62.5625 125.125L62.5625 500.5L187.6875 450.4499999999999L187.6875 187.6875L813.3125 187.6875L813.3125 450.4499999999999L938.4375 500.5zM625.625 750.75L625.625 813.3125L375.375 813.3125L375.375 750.75L625.625 750.75zM500.5 375.375C535.052314671875 375.375 563.0625 403.385185328125 563.0625 437.9375C563.0625 472.489814671875 535.052314671875 500.5 500.5 500.5C465.947685328125 500.5 437.9375 472.489814671875 437.9375 437.9375C437.9375 403.385185328125 465.947685328125 375.375 500.5 375.375z" />
    <glyph glyph-name="archive"
      unicode="&#xE059;"
      horiz-adv-x="1001" d="M782.03125 406.65625L782.03125 813.3125L218.96875 813.3125L218.96875 406.65625L312.8125 406.65625L375.375 344.09375L625.625 344.09375L688.1875 406.65625L782.03125 406.65625zM782.03125 344.09375L719.46875 344.09375L656.90625 281.53125L344.09375 281.53125L281.53125 344.09375L218.96875 344.09375L218.96875 187.6875L782.03125 187.6875L782.03125 344.09375zM93.84375 938.4375L907.15625 938.4375L907.15625 62.5625L93.84375 62.5625L93.84375 938.4375zM312.8125 688.1875L688.1875 688.1875L688.1875 625.625L312.8125 625.625L312.8125 688.1875zM312.8125 563.0625L688.1875 563.0625L688.1875 500.5L312.8125 500.5L312.8125 563.0625z" />
    <glyph glyph-name="archived"
      unicode="&#xE05A;"
      horiz-adv-x="1001" d="M1001 563.0625L1001 62.5625L0 62.5625L0 563.0625L1001 563.0625zM875.875 437.9375L125.125 437.9375L125.125 187.6875L875.875 187.6875L875.875 437.9375zM688.1875 375.375L688.1875 250.25L312.8125 250.25L312.8125 375.375L688.1875 375.375zM875.875 750.75L875.875 625.625L125.125 625.625L125.125 750.75L875.875 750.75zM688.1875 938.4375L688.1875 813.3125L312.8125 813.3125L312.8125 938.4375L688.1875 938.4375z" />
    <glyph glyph-name="arrow-down"
      unicode="&#xE05B;"
      horiz-adv-x="1001" d="M556.77465218375 315.95642203125L713.18089968125 472.362673908125L807.02464968125 378.518923908125L497.356076091875 68.85035031875L187.6875 378.518923908125L281.53125 472.362673908125L431.64965218375 322.2442723500001L431.64965218375 938.4375L556.77465218375 938.4375z" />
    <glyph glyph-name="arrow-left"
      unicode="&#xE05C;"
      horiz-adv-x="1001" d="M315.956423908125 563.0625L472.362673908125 719.46875L378.518923908125 813.3125000000035L68.85035031875 503.643923908125L378.518923908125 193.97534781625L472.362673908125 287.81909781625L322.24427235 437.9375L938.4375 437.9375L938.4375 563.0625z" />
    <glyph glyph-name="arrow-right"
      unicode="&#xE05D;"
      horiz-adv-x="1001" d="M685.04357796875 563.0625L528.637326091875 719.46875L622.481076091875 813.3125L932.14964968125 503.643923908125L622.481076091875 193.97535031875L528.637326091875 287.81910031875L678.7557276499999 437.9375L62.5625 437.9375L62.5625 563.0625z" />
    <glyph glyph-name="arrow-up"
      unicode="&#xE05E;"
      horiz-adv-x="1001" d="M437.9375 691.331423908125L281.53125 534.925173908125L187.6875 628.768923908125L497.356076091875 938.4375L807.02464968125 628.768923908125L713.18089968125 534.925173908125L563.0625 685.043576091875L563.0625 68.85035031875L437.9375 68.85035031875z" />
    <glyph glyph-name="base-info2"
      unicode="&#xE05F;"
      horiz-adv-x="1001" d="M125.125 813.3125L625.625 813.3125L625.625 688.1875L125.125 688.1875L125.125 813.3125zM125.125 563.0625L875.875 563.0625L875.875 437.9375L125.125 437.9375L125.125 563.0625zM125.125 312.8125L500.5 312.8125L500.5 187.6875L125.125 187.6875L125.125 312.8125z" />
    <glyph glyph-name="branch-compare"
      unicode="&#xE060;"
      horiz-adv-x="1001" d="M62.5625 437.9375L0 437.9375L0 563.0625L62.5625 563.0625L62.5625 750.75C62.5625 854.406944015625 146.593055984375 938.4375 250.25 938.4375L312.8125 938.4375L312.8125 813.3125L250.25 813.3125C215.697685328125 813.3125 187.6875 785.302314671875 187.6875 750.75L187.6875 250.25C187.6875 215.69768845625 215.697685328125 187.6875 250.25 187.6875L312.8125 187.6875L312.8125 62.5625L250.25 62.5625C146.593055984375 62.5625 62.5625 146.5930591125 62.5625 250.25L62.5625 437.9375zM938.4375 563.0625L1001 563.0625L1001 437.9375L938.4375 437.9375L938.4375 250.25C938.4375 146.5930591125 854.4069408875 62.5625 750.75 62.5625L688.1875 62.5625L688.1875 187.6875L750.75 187.6875C785.30231154375 187.6875 813.3125 215.69768845625 813.3125 250.25L813.3125 750.75C813.3125 785.302314671875 785.30231154375 813.3125 750.75 813.3125L688.1875 813.3125L688.1875 938.4375L750.75 938.4375C854.4069408875 938.4375 938.4375 854.406944015625 938.4375 750.75L938.4375 563.0625zM437.9375 563.0625L437.9375 437.9375L250.25 625.625L437.9375 813.3125L437.9375 688.1875L625.625 688.1875L625.625 563.0625L437.9375 563.0625zM563.0625 437.9375L563.0625 563.0625L750.75 375.375L563.0625 187.6875L563.0625 312.8125L375.375 312.8125L375.375 437.9375L563.0625 437.9375z" />
    <glyph glyph-name="branch-merge"
      unicode="&#xE061;"
      horiz-adv-x="1001" d="M500.5 480.14753411625C522.66228389375 499.984468108125 549.7359742875001 514.7344427225 580.10409457 522.326472793125L640.798633475 537.500107519375C668.6493939124999 544.46279762875 688.1875 569.486740948125 688.1875 598.194647675625L688.1875 636.3047759818751C615.290152351875 662.0702913825 563.0625 731.592184448125 563.0625 813.3125C563.0625 916.969444015625 647.0930591125 1001 750.75 1001C854.4069408875 1001 938.4375 916.969444015625 938.4375 813.3125C938.4375 731.592184448125 886.209849525 662.0702913825 813.3125 636.3047759818751L813.3125 598.194647675625C813.3125 512.070927493125 754.69818799375 436.9990975349999 671.1459066812499 416.111027206875L610.4513646481249 400.937392480625C590.3740142300001 395.918054406875 574.6166113187501 381.512587080625 567.38459903125 363.107219475C638.0154280500001 336.16117535 688.1875 267.78349723125 688.1875 187.6875C688.1875 84.0305591125 604.1569440156251 0 500.5 0C396.843055984375 0 312.8125 84.0305591125 312.8125 187.6875C312.8125 267.78349723125 362.984573826875 336.16117535 433.61540096875 363.107219475C426.3833886812501 381.512587080625 410.62598577 395.918054406875 390.548635351875 400.937392480625L329.8540945700001 416.111027206875C246.3018132575 436.9990975349999 187.6875 512.070927493125 187.6875 598.194647675625L187.6875 636.3047759818751C114.790152351875 662.0702913825 62.5625 731.592184448125 62.5625 813.3125C62.5625 916.969444015625 146.593055984375 1001 250.25 1001C353.906944015625 1001 437.9375 916.969444015625 437.9375 813.3125C437.9375 731.592184448125 385.709847648125 662.0702913825 312.8125 636.3047759818751L312.8125 598.194647675625C312.8125 569.486740948125 332.350604210625 544.46279762875 360.201364648125 537.500107519375L420.89590543 522.326472793125C451.2640257125 514.7344427225 478.33771610625 499.984468108125 500.5 480.14753411625L500.5 480.14753411625zM250.25 750.75C284.802314671875 750.75 312.8125 778.760185328125 312.8125 813.3125C312.8125 847.864814671875 284.802314671875 875.875 250.25 875.875C215.697685328125 875.875 187.6875 847.864814671875 187.6875 813.3125C187.6875 778.760185328125 215.697685328125 750.75 250.25 750.75zM750.75 750.75C785.30231154375 750.75 813.3125 778.760185328125 813.3125 813.3125C813.3125 847.864814671875 785.30231154375 875.875 750.75 875.875C716.19768845625 875.875 688.1875 847.864814671875 688.1875 813.3125C688.1875 778.760185328125 716.19768845625 750.75 750.75 750.75z" />
    <glyph glyph-name="bug"
      unicode="&#xE062;"
      horiz-adv-x="1001" d="M531.78125 125.125L531.78125 563.0625L469.21875 563.0625L469.21875 125.125L437.9375 125.125C362.00471181875 140.62471548125 297.22709891875 184.56786473125 252.6124125525 244.14758493125L187.6875 211.4612500000001L187.6875 62.5625L62.5625 62.5625L62.5625 289.03875L198.2356501125 356.60929679375C191.336551030625 382.82551432125 187.681824955625 410.1320792318751 187.6875 437.9375L62.5625 437.9375L62.5625 563.0625L187.6874974975 563.0625L187.687494995 680.5734316631249L36.810695546625 831.45023086125L125.287431644375 919.92696670875L294.464398353125 750.75L743.3919117625 750.75L912.45467438125 919.81276512125L1000.93141273125 831.336028648125L813.36072943125 643.76534847625L813.3125 563.0625L938.4375 563.0625L938.4375 437.9375L813.3125 437.9375C813.31817441875 410.1320792318751 809.66344834375 382.82551432125 802.7643498875001 356.60929679375L938.4375 289.03875L938.4375 62.5625L813.3125 62.5625L813.3125 211.4612500000001L748.38758995 244.14758493125C703.77290108125 184.56786473125 638.9952881812501 140.62471548125 563.0625 125.125L531.78125 125.125zM312.8125 813.3125C312.8125 916.969444015625 396.843055984375 1001 500.5 1001C604.1569440156251 1001 688.1875 916.969444015625 688.1875 813.3125L312.8125 813.3125z" />
    <glyph glyph-name="build-with-tool"
      unicode="&#xE063;"
      horiz-adv-x="1001" d="M813.3125 605.17486404375L563.0625 460.9153223674999L563.0625 179.8628581749999L813.3125 322.8628590687501L813.3125 605.17486404375L813.3125 605.17486404375zM751.0556178125 713.712502628125L500.5 856.887142986875L253.536795386875 715.76531151125L503.541119956875 571.029872538125L751.0556178125 713.712502628125L751.0556178125 713.712502628125zM437.9375 179.8628581749999L437.9375 464.42894372875L187.6875 609.30661166375L187.6875 322.8628590687501L437.9375 179.8628581749999L437.9375 179.8628581749999zM500.5 1001L938.4375 750.75L938.4375 250.25L500.5 0L62.5625 250.25L62.5625 750.75L500.5 1001z" />
    <glyph glyph-name="bulk-edit"
      unicode="&#xE064;"
      horiz-adv-x="1001" d="M312.8125 688.1875L625.625 688.1875C660.17731154375 688.1875 688.1875 660.177314671875 688.1875 625.625L688.1875 312.8125L750.75 312.8125L750.75 750.75L312.8125 750.75L312.8125 688.1875zM688.1875 250.25L688.1875 187.6875C688.1875 153.13518845625 660.17731154375 125.125 625.625 125.125L187.6875 125.125C153.135185328125 125.125 125.125 153.13518845625 125.125 187.6875L125.125 625.625C125.125 660.177314671875 153.135185328125 688.1875 187.6875 688.1875L250.25 688.1875L250.25 750.75C250.25 785.302314671875 278.260185328125 813.3125 312.8125 813.3125L375.375 813.3125L375.375 875.875C375.375 910.427314671875 403.385185328125 938.4375 437.9375 938.4375L875.875 938.4375C910.42731154375 938.4375 938.4375 910.427314671875 938.4375 875.875L938.4375 437.9375C938.4375 403.385185328125 910.42731154375 375.375 875.875 375.375L813.3125 375.375L813.3125 312.8125C813.3125 278.2601884562501 785.30231154375 250.25 750.75 250.25L688.1875 250.25zM813.3125 437.9375L875.875 437.9375L875.875 875.875L437.9375 875.875L437.9375 813.3125L750.75 813.3125C785.30231154375 813.3125 813.3125 785.302314671875 813.3125 750.75L813.3125 437.9375zM307.062697816875 276.026725975C315.07492141125 268.7905595375001 320.4179741262501 263.207119175 331.1527656937501 263.207119175C341.887557886875 263.207119175 348.967828584375 268.7905595375001 356.4078242725 276.026725975C361.367821189375 280.85083901875 438.447971836875 358.7294836125 587.648276215 509.662651623125C599.75699658875 521.8968091837501 599.70619333625 541.615148449375 587.42090782375 553.900433961875C575.204819564375 566.11652222125 555.39862753375 566.11652222125 543.1825398999999 553.900433961875L329.5808040525 340.2986962375001L241.104067579375 428.775433961875C228.887979945625 440.99152222125 209.081787915 440.99152222125 196.833432420625 428.7754220750001C184.626261194375 416.550423664375 184.640713131875 396.744237264375 196.8657115425 384.537066038125C264.9888866625 317.0209542500001 301.721215420625 280.85083901875 307.062697816875 276.026725975z" />
    <glyph glyph-name="buy"
      unicode="&#xE065;"
      horiz-adv-x="1001" d="M269.739091496875 813.3125L1001 813.3125L885.313153725 375.375L349.802029451875 375.375L361.239591838125 312.8125L875.875 312.8125L813.3125 187.6875L265.761783161875 187.6875L139.948595661875 875.875L4.1637837616375 875.875L4.1637837616375 1001.0000000000002L235.426404338125 1001.0000000000002L269.739091496875 813.3125zM375.375 0C340.822685328125 0 312.8125 28.01018845625 312.8125 62.5625C312.8125 97.11481154375 340.822685328125 125.125 375.375 125.125C409.927314671875 125.125 437.9375 97.11481154375 437.9375 62.5625C437.9375 28.01018845625 409.927314671875 0 375.375 0zM750.75 0C716.19768845625 0 688.1875 28.01018845625 688.1875 62.5625C688.1875 97.11481154375 716.19768845625 125.125 750.75 125.125C785.30231154375 125.125 813.3125 97.11481154375 813.3125 62.5625C813.3125 28.01018845625 785.30231154375 0 750.75 0z" />
    <glyph glyph-name="calendar"
      unicode="&#xE066;"
      horiz-adv-x="1001" d="M187.6875 875.875L187.6875 750.75L125.125 750.75L125.125 187.6875L875.875 187.6875L875.875 750.75L813.3125 750.75L813.3125 875.875L938.4375 875.875C972.98981154375 875.875 1001 847.864814671875 1001 813.3125L1001 125.125C1001 90.57268845625 972.98981154375 62.5625 938.4375 62.5625L62.5625 62.5625C28.010185328125 62.5625 0 90.57268845625 0 125.125L0 813.3125C0 847.864814671875 28.010185328125 875.875 62.5625 875.875L187.6875 875.875zM375.375 437.9375L375.375 312.8125L250.25 312.8125L250.25 437.9375L375.375 437.9375zM563.0625 437.9375L563.0625 312.8125L437.9375 312.8125L437.9375 437.9375L563.0625 437.9375zM750.75 437.9375L750.75 312.8125L625.625 312.8125L625.625 437.9375L750.75 437.9375zM375.375 625.625L375.375 500.5L250.25 500.5L250.25 625.625L375.375 625.625zM563.0625 625.625L563.0625 500.5L437.9375 500.5L437.9375 625.625L563.0625 625.625zM750.75 625.625L750.75 500.5L625.625 500.5L625.625 625.625L750.75 625.625zM563.0625 875.875L563.0625 750.75L437.9375 750.75L437.9375 875.875L563.0625 875.875zM375.375 938.4375L375.375 750.75L250.25 750.75L250.25 938.4375L375.375 938.4375zM750.75 938.4375L750.75 750.75L625.625 750.75L625.625 938.4375L750.75 938.4375z" />
    <glyph glyph-name="cancel-forbidden"
      unicode="&#xE067;"
      horiz-adv-x="1001" d="M500.5 0C224.0813574999941 0 0 224.0813574999941 0 500.5C0 776.918642500006 224.0813574999941 1001 500.5 1001C776.918642500006 1001 1001 776.918642500006 1001 500.5C1001 224.0813574999941 776.918642500006 0 500.5 0zM500.5 125.125C707.8139818749938 125.125 875.875 293.1860181250062 875.875 500.5C875.875 707.8139818749938 707.8139818749938 875.875 500.5 875.875C293.1860181250062 875.875 125.125 707.8139818749938 125.125 500.5C125.125 293.1860181250062 293.1860181250062 125.125 500.5 125.125zM375.375 750.75L750.75 500.5L375.375 250.25L375.375 750.75z" />
    <glyph glyph-name="cherry-pick"
      unicode="&#xE068;"
      horiz-adv-x="1001" d="M187.6875 563.0625L187.6875 312.8125C187.6875 278.2601884562501 215.697685328125 250.25 250.25 250.25L375.375 250.25L375.375 125.125L187.6875 125.125L187.6875 135.8047753562499C114.790152351875 161.57029013125 62.5625 231.0921863250001 62.5625 312.8125L62.5625 813.3125C62.5625 916.969444015625 146.593055984375 1001 250.25 1001L312.8125 1001L312.8125 875.875L250.25 875.875C215.697685328125 875.875 187.6875 847.864814671875 187.6875 813.3125L187.6875 688.1875L375.375 688.1875L375.375 563.0625L187.6875 563.0625zM563.0625 437.9375C459.405555984375 437.9375 375.375 521.968055984375 375.375 625.625C375.375 729.281944015625 459.405555984375 813.3125 563.0625 813.3125C666.7194408875 813.3125 750.75 729.281944015625 750.75 625.625C750.75 521.968055984375 666.7194408875 437.9375 563.0625 437.9375zM563.0625 563.0625C597.614814671875 563.0625 625.625 591.072685328125 625.625 625.625C625.625 660.177314671875 597.614814671875 688.1875 563.0625 688.1875C528.510185328125 688.1875 500.5 660.177314671875 500.5 625.625C500.5 591.072685328125 528.510185328125 563.0625 563.0625 563.0625zM750.75 688.1875L938.4375 688.1875L938.4375 563.0625L750.75 563.0625L750.75 688.1875zM563.0625 0C459.405555984375 0 375.375 84.0305591125 375.375 187.6875C375.375 291.3444408875 459.405555984375 375.375 563.0625 375.375C666.7194408875 375.375 750.75 291.3444408875 750.75 187.6875C750.75 84.0305591125 666.7194408875 0 563.0625 0zM563.0625 125.125C597.614814671875 125.125 625.625 153.13518845625 625.625 187.6875C625.625 222.23981154375 597.614814671875 250.25 563.0625 250.25C528.510185328125 250.25 500.5 222.23981154375 500.5 187.6875C500.5 153.13518845625 528.510185328125 125.125 563.0625 125.125zM750.75 250.25L938.4375 250.25L938.4375 125.125L750.75 125.125L750.75 250.25zM375.375 1001L500.5 1001L500.5 875.875L375.375 875.875L375.375 1001zM563.0625 1001L688.1875 1001L688.1875 875.875L563.0625 875.875L563.0625 1001zM750.75 1001L875.875 1001L875.875 875.875L750.75 875.875L750.75 1001z" />
    <glyph glyph-name="chevron-down"
      unicode="&#xE069;"
      horiz-adv-x="1001" d="M281.53125 688.1875L500.5 452.374999951875L719.46875 688.1875L813.3125 587.12499971125L500.5 250.25L187.6875 587.12499971125z" />
    <glyph glyph-name="chevron-right"
      unicode="&#xE06A;"
      horiz-adv-x="1001" d="M286.8983117 231.925869175L375.3750500500001 143.449130825L732.4259167225 500.5L375.3750500500001 857.55086792375L286.8983117 769.07413207625L555.4724450275 500.5z" />
    <glyph glyph-name="chevron-up"
      unicode="&#xE06B;"
      horiz-adv-x="1001" d="M719.46875 312.8125L500.5 548.625000048125L281.53125 312.8125L187.6875 413.87500028875L500.5 750.75L813.3125 413.87500028875z" />
    <glyph glyph-name="classroom-approve"
      unicode="&#xE06C;"
      horiz-adv-x="1001" d="M1001 500.5L625.625 0L375.375 312.8125L563.0625 312.8125L625.625 187.6875L875.875 500.5L1001 500.5zM688.1875 1001C791.8444408875 1001 875.875 916.969444015625 875.875 813.3125L875.875 625.625L750.75 625.625L750.75 813.3125C750.75 847.864814671875 722.73981154375 875.875 688.1875 875.875L187.6875 875.875C153.135185328125 875.875 125.125 847.864814671875 125.125 813.3125L125.125 312.8125C125.125 278.2601884562501 153.135185328125 250.25 187.6875 250.25L312.8125 250.25L312.8125 125.125L187.6875 125.125C84.030555984375 125.125 0 209.1555591125 0 312.8125L0 813.3125C0 916.969444015625 84.030555984375 1001 187.6875 1001L688.1875 1001zM500.5 500.5L500.5 375.375L250.25 375.375L250.25 500.5L500.5 500.5zM625.625 750.75L625.625 625.625L250.25 625.625L250.25 750.75L625.625 750.75z" />
    <glyph glyph-name="classroom-post-answers-large"
      unicode="&#xE06D;"
      horiz-adv-x="1001" d="M62.5625 900.9L938.4375 900.9C972.989812795 900.9 1001 872.329611153 1001 837.0862500000001L1001 113.86375C1001 78.620386845 972.989812795 50.0500000000001 938.4375 50.0500000000001L62.5625 50.0500000000001C28.01018535315 50.0500000000001 0 78.620386845 0 113.86375L0 837.0862500000001C0 872.329611153 28.01018535315 900.9 62.5625 900.9zM100.1 800.8L100.1 150.1500000000001L900.9 150.1500000000001L900.9 800.8L100.1 800.8zM200.2 650.6500000000001L800.8 650.6500000000001L800.8 550.55L200.2 550.55L200.2 650.6500000000001zM200.2 400.4000000000001L550.55 400.4000000000001L550.55 300.3000000000001L200.2 300.3000000000001L200.2 400.4000000000001z" />
    <glyph glyph-name="classroom-post-results-large"
      unicode="&#xE06E;"
      horiz-adv-x="1001" d="M550.55 972.10361903655L883.8957126999999 779.6463810135C914.86676281 761.765238234 933.9457126999998 728.719523532 933.9457126999998 692.957237973L933.9457126999998 308.0427600250001C933.9457126999998 272.2804784700001 914.86676281 239.2347607650001 883.8957126999999 221.353617485L550.55 28.896382515C519.57894989 11.0152392350001 481.4210476075 11.0152392350001 450.45 28.896382515L117.104285298 221.353617485C86.1332376905 239.2347607650001 67.054285298 272.2804784700001 67.054285298 308.0427600250001L67.054285298 692.957237973C67.054285298 728.719523532 86.1332376905 761.765238234 117.104285298 779.6463810135L450.45 972.10361903655C481.4210476075 989.98476181605 519.57894989 989.98476181605 550.55 972.10361903655zM500.5 885.414475946L167.154285298 692.957237973L167.154285298 308.0427600250001L500.5 115.585525055L833.8457126999999 308.0427600250001L833.8457126999999 692.957237973L500.5 885.414475946zM500.5 720.3801950345L556.5500590649999 578.7701985065L706.615684775 568.446716838L591.1909003 470.6034433100001L627.8864992399999 322.613185895L500.5 403.752714365L373.11350076 322.613185895L409.8090981985 470.6034433100001L294.384314224 568.446716838L444.4499404345 578.7701985065L500.5 720.3801950345z" />
    <glyph glyph-name="classroom-reject"
      unicode="&#xE06F;"
      horiz-adv-x="1001" d="M604.1569440156251 482.715279921875L750.75 336.14056100625L897.3430591125 482.715279921875C921.05601713125 506.4282398175 959.502318775 506.4282398175 983.21528305 482.715279921875C1006.92824106875 459.00232002625 1006.92824106875 420.55601588 983.21528305 396.843055984375L836.6222239375 250.2683370687501L983.21528305 103.6569408875C1006.92824106875 79.94398286875 1006.92824106875 41.4976812250001 983.21528305 17.78471695C959.502318775 -5.9282410687499 921.05601713125 -5.9282410687499 897.3430591125 17.78471695L750.75 164.39611313125L604.1569440156251 17.78471695C580.44398412 -5.9282410687499 541.99767997375 -5.9282410687499 518.284720078125 17.78471695C494.5717601825 41.4976812250001 494.5717601825 79.94398286875 518.284720078125 103.6569408875L664.8777760625 250.2683370687501L518.284720078125 396.843055984375C494.5717601825 420.55601588 494.5717601825 459.00232002625 518.284720078125 482.715279921875C541.99767997375 506.4282398175 580.44398412 506.4282398175 604.1569440156251 482.715279921875zM688.1875 1000.9999999999998C791.8444408875 1000.9999999999998 875.875 916.969444015625 875.875 813.3125L875.875 625.625L750.75 625.625L750.75 813.3125C750.75 847.864814671875 722.73981154375 875.875 688.1875 875.875L187.6875 875.875C153.135185328125 875.875 125.125 847.864814671875 125.125 813.3125L125.125 312.8125C125.125 278.2601884562501 153.135185328125 250.25 187.6875 250.25L312.8125 250.25L312.8125 125.125L187.6875 125.125C84.030555984375 125.125 0 209.1555591125 0 312.8125L0 813.3125C0 916.969444015625 84.030555984375 1000.9999999999998 187.6875 1000.9999999999998L688.1875 1000.9999999999998zM437.9375 500.5L437.9375 375.375L250.25 375.375L250.25 500.5L437.9375 500.5zM625.625 750.75L625.625 625.625L250.25 625.625L250.25 750.75L625.625 750.75z" />
    <glyph glyph-name="close-folder"
      unicode="&#xE070;"
      horiz-adv-x="1001" d="M187.6875 875.875L813.3125 875.875C847.86481154375 875.875 875.875 847.864814671875 875.875 813.3125L875.875 187.6875C875.875 153.13518845625 847.86481154375 125.125 813.3125 125.125L187.6875 125.125C153.135185328125 125.125 125.125 153.13518845625 125.125 187.6875L125.125 813.3125C125.125 847.864814671875 153.135185328125 875.875 187.6875 875.875zM437.9375 563.0625L250.25 563.0625L250.25 437.9375L437.9375 437.9375L437.9375 250.25L563.0625 250.25L563.0625 437.9375L750.75 437.9375L750.75 563.0625L563.0625 563.0625L563.0625 750.75L437.9375 750.75L437.9375 563.0625z" />
    <glyph glyph-name="close"
      unicode="&#xE071;"
      horiz-adv-x="1001" d="M500.5 588.9767358475001L765.93020879375 854.406944015625L854.4069408875 765.930208168125L588.9767358475 500.5L854.4069408875 235.06979120625L765.93020879375 146.5930591125L500.5 412.0232641525L235.069791831875 146.5930591125L146.593055984375 235.06979120625L412.0232641525 500.5L146.593055984375 765.930208168125L235.069791831875 854.406944015625z" />
    <glyph glyph-name="closed-merge"
      unicode="&#xE072;"
      horiz-adv-x="1001" d="M250.25 938.4375C319.35462934375 938.4375 375.375 882.41712934375 375.375 813.3125C375.375 760.8246326931251 343.0566226587501 715.885126831875 297.233734923125 697.307849363125L297.233734923125 303.6921512625001C343.0566226587501 285.11487379375 375.375 240.17536668125 375.375 187.6875C375.375 118.58287065625 319.35462934375 62.5625 250.25 62.5625C181.14537065625 62.5625 125.125 118.58287065625 125.125 187.6875C125.125 240.1993468875001 157.47291184625 285.1559335625001 203.3290734475 303.71759543125L203.3290734475 697.282406445625C157.47291184625 715.8440689399999 125.125 760.8006549893751 125.125 813.3125C125.125 882.41712934375 181.14537065625 938.4375 250.25 938.4375zM653.54111948125 413.0969492650001L658.80377688125 408.553776255625L750.75 316.59297044375L842.69622311875 408.553776255625C861.02035394375 426.87790770625 890.72964605625 426.87790770625 909.05377688125 408.553776255625C925.7120747875 391.89547397 927.22646891875 365.8279499875 913.5969467625 347.45888051875L909.05377688125 342.1962231187501L817.0662500000001 250.2767204437499L909.05377688125 158.30377688125C927.37790770625 139.97964605625 927.37790770625 110.27035394375 909.05377688125 91.94622311875C892.39547271875 75.2879252125 866.3279499875 73.77353108125 847.95888051875 87.4030532375L842.69622311875 91.94622311875L750.75 183.89790794375L658.80377688125 91.94622311875C640.47964605625 73.62209229375 610.770355820625 73.62209229375 592.4462237443751 91.94622311875C575.787922084375 108.6045272812499 574.27353108125 134.6720500125 587.903050735 153.04111948125L592.4462237443751 158.30377688125L684.3711875 250.2767204437499L592.4462237443751 342.1962231187501C574.12209229375 360.52035394375 574.12209229375 390.229644179375 592.4462237443751 408.553776255625C609.10452603 425.212077915625 635.1720500125 426.72646891875 653.54111948125 413.0969492650001zM250.25 250.25C215.697685328125 250.25 187.6875 222.23981154375 187.6875 187.6875C187.6875 153.13518845625 215.697685328125 125.125 250.25 125.125C284.802314671875 125.125 312.8125 153.13518845625 312.8125 187.6875C312.8125 222.23981154375 284.802314671875 250.25 250.25 250.25zM563.0625 990.2659720078124L563.0625 922.823596695L688.1875 922.796875C779.6871457375 922.796875 854.50391901875 851.3689809625 859.920386325 761.230615770625L860.234375 750.75L860.234375 500.526721695L766.390625 500.526721695L766.390625 750.75C766.390625 791.2409936681249 735.61771408125 824.54458961875 696.1833128249999 828.549371024375L688.1875 828.953125L563.0625 828.979846695L563.0625 761.484028305L386.1090283050001 875.875L563.0625 990.2659720078124zM250.25 875.875C215.697685328125 875.875 187.6875 847.864814671875 187.6875 813.3125C187.6875 778.760185328125 215.697685328125 750.75 250.25 750.75C284.802314671875 750.75 312.8125 778.760185328125 312.8125 813.3125C312.8125 847.864814671875 284.802314671875 875.875 250.25 875.875z" />
    <glyph glyph-name="code"
      unicode="&#xE073;"
      horiz-adv-x="1001" d="M320.40260377125 357.050869175L231.92586792375 268.574130825L0 500.5L231.92586792375 732.42586792375L320.40260377125 643.94913207625L176.953471695 500.5L320.40260377125 357.050869175zM680.59739873125 357.050869175L824.04652955625 500.5L680.59739873125 643.94913207625L769.074130825 732.42586792375L1001 500.5L769.074130825 268.574130825L680.59739873125 357.050869175zM501.7149212075 825.58201600875L624.4100787924999 801.04298399125L499.2850787925 175.4179864937501L376.5899212075 199.95701350625L501.7149212075 825.58201600875z" />
    </font>
</defs>
</svg>
